BlackMagic Design HyperDeck Studio 4K

S tím jak řeším stream nadcházející Czequestrie jsem pořídil několik nových hraček.

Jak to tak od produktů firmy BlackMagic Design bývá tak dokumentace je vždycky nedostačující a chybí jí detail. Jeden z nich je například jaké konkrétní kodeky a containery používá u jednotlivých kodeků menu. Proto jsem se rozhodnul že tyhle informace dám k dispozici u sebe na webu.

HyperDeck pro 4K je rackový studiový rekorder, který umnožňuje zapojit až 5 médií pro nahrávání a to 2x SATA SSD a 2x SD karty. V zadní části je dále USB-C konektor, který může sloužit jako expanzní slot po externí SSD či jej lze využít jako virtuální “webkameru” v počítači. V manuálu se na stránce 15 dozvíte že rekordér umí H264/5 a DNx a ProRes a tím to končí, žádné další detaily. To je dost na prdlačku, když by jste chtěli vědět jaká SSD pořídit.

Ještě drobná vsuvka co se týče kompatibility SSD/SD médií. BlackMagic uvádí velmi krátký a ne úplně aktuální seznam kompatibilních médií na webu a v manuálu. Obecně platí že bude fungovat téměř každé SATA SSD, které je určené do enterprise nasazení (enterprise class). Indikátorem je výdrž zápisů v terrabytes written (TBW) a minimální rychlost konstantního zápisu. U spotřebitelných SSD zapíšete většinou stovky TB u enterprise tisíce. Rychlostně platí že enterprise SSD vydrží déle udržet vyšší rychlosti zápisu než spotřebitelské SSD. To je důležité v připadě že potřebujete nahrávat v ProRes a DNx kodecích které vyžadují až 1.8 Gbit zápisovou rychlost. Finálním indikátorem je pak samozřejmě cena 😅 ta u enterprise SSD bude vždycky vyšší než u spotřebitelných SSD. V době psaní článku jsou typickými představiteli například Kingston DC600M nebo Micron 5400 v SATA verzích. Pro komprimované formáty takhle vysoké rychlosti nicméně potřeba nejsou a vyhoví i spotřebitelské SSD. To je důvod proč jsem tento benchmark dělal, datarate u H264/5 je tak nízká že vyhoví doslova každé SATA SSD. Testování jsem dělal s verzí softwararu 8.4.

Komprimované formáty H.264 a H.265 (HEVC)

V menu máte na výběr tyto volby:

  • H.264/5 SDI
  • H.264/5 High
  • H.264/5 Medium
  • H.264/5 Low

To jestli bude použit kodek H.265 nebo H.264 závisí na tom jaké rozlišení posíláte do vstupu. Všechny rozlišení do FullHD (1920×1080) jsou H.264. Když na vstup nastavíte rozlišení UltraHD (3840×2160) tak je automaticky zvolen kodek H.265. Detaily z jednotlivých souborů jsem získával pomocí “ffprobe”, který je součástí FFMPEG projektu.

ffprobe -i HyperDeck_0011.mp4 -hide_banner > HyperDeck_0011.txt 2>&1

Měření jsem prováděl tímto zdrojovým videem staženém na disk a pouštěním ve full screenu pomocí PotPlayeru na laptoptu připojeným přes HDMI. U UltraHD verzí jsem měl video výstup laptopu nastavený jako extended desktop u FullHD jako dupliku hlavní obrazovky.

Semi-komprimované formáty

Z nějakého důvodu i když je vstupní rozlišení přes HDMI FullHD tak volby DNx kodeku se nezmění z DNxHR (High Resolution) na DNxHD (High Definition). Tím pádem v menu vždy máte napsáno DNxHR i když nahráte HD rozlišení. Dle informací které mám tak kodek DNxHR je určen pro všechny rozlišení nad FullHD (1920×1080). Mezi DNx kodeky jsou vždycky 2 volby jedna s přidomkem “MXF” což značí použití containeru .MXF a druhá bez přídomku, která znamená container .MOV. Seznam kodeků k dispozici v menu. Audio bylo nahráváno jako 2 kanálové 48 Khz 24 bit.

  • Apple ProRes
    • ProRes HQ
    • ProRes
    • ProRes LT
    • ProRes Proxy
  • Avid DNxHD
    • DNxHD HQX (volba DNxHR HQX)
    • DNxHD 290 (DNxHR SQ)
    • DNxHD 90 (DNxHR LB)
  • Avid DNxHR
    • DNxHR HQX
    • DNxHR SQ
    • DNxHR LB

Komprimované formáty souhrnná tabulka

Výcuc z všech měření, celkový bitrate v kb/s (video + audio).

FramerateSDIHighMediumLow
UltraHDFullHDUltraHDFullHDUltraHDFullHDUltraHDFullHD
60 FPS1804023968170232462817316219531633415559
59.94 FPS2035723456191172448219020216921731716033
50 FPS1852424206170032394517091197911529914173
30 FPS1783519365167661880016777151601408610839
29.97 FPS2078719547193661892719199151601512210775
25 FPS200771730818919164361832713640138859440
24 FPS202751684319115159581844712896137558997
23.98 FPS204621668118891156981843813155138849036

Rychlé odkazy na jednotlivá měření H264/5

A zde jsou výsledky z měření,


H.264/5 SDI

UltraHD (3840×2160)

SDI

60 FPS
Input #0, mov,mp4,m4a,3gp,3g2,mj2, from 'HyperDeck_0003.mp4':
  Metadata:
    major_brand     : isom
    minor_version   : 1
    compatible_brands: iso4avc1isom
    creation_time   : 2024-06-30T19:56:39.000000Z
    com.apple.proapps.reel: 1
    com.apple.proapps.scene: 1
    com.apple.proapps.shot: 25
    com.blackmagic-design.camera.environment: interior
    com.blackmagic-design.camera.dayNight: day
    com.apple.proapps.cameraName: 1
    com.blackmagic-design.camera.dateRecorded: 20240630
  Duration: 00:02:08.70, start: 0.000000, bitrate: 18040 kb/s
  Stream #0:0(eng): Video: hevc (Rext) (hvc1 / 0x31637668), yuv422p10le(tv, progressive), 3840x2160, 15725 kb/s, SAR 1:1 DAR 16:9, 60 fps, 60 tbr, 60 tbn, 60 tbc (default)
    Metadata:
      creation_time   : 2024-06-30T19:56:39.000000Z
      handler_name    : ?Apple Video Media Handler
      vendor_id       : BMAG
      encoder         : H265/HVC
  Stream #0:1(eng): Audio: pcm_s24le (in24 / 0x34326E69), 48000 Hz, 2 channels, s32 (24 bit), 2304 kb/s (default)
    Metadata:
      creation_time   : 2024-06-30T19:56:39.000000Z
      handler_name    : ?Apple Sound Media Handler
      vendor_id       : [0][0][0][0]

59.94 FPS
Input #0, mov,mp4,m4a,3gp,3g2,mj2, from 'HyperDeck_0001.mp4':
  Metadata:
    major_brand     : isom
    minor_version   : 1
    compatible_brands: iso4avc1isom
    creation_time   : 2024-06-30T20:10:58.000000Z
    com.apple.proapps.reel: 1
    com.apple.proapps.scene: 1
    com.apple.proapps.shot: 29
    com.blackmagic-design.camera.environment: interior
    com.blackmagic-design.camera.dayNight: day
    com.apple.proapps.cameraName: 1
    com.blackmagic-design.camera.dateRecorded: 20240630
  Duration: 00:02:07.63, start: 0.000000, bitrate: 20357 kb/s
  Stream #0:0(eng): Video: hevc (Rext) (hvc1 / 0x31637668), yuv422p10le(tv, progressive), 3840x2160, 18043 kb/s, SAR 1:1 DAR 16:9, 59.94 fps, 59.94 tbr, 60k tbn, 59.94 tbc (default)
    Metadata:
      creation_time   : 2024-06-30T20:10:58.000000Z
      handler_name    : ?Apple Video Media Handler
      vendor_id       : BMAG
      encoder         : H265/HVC
  Stream #0:1(eng): Audio: pcm_s24le (in24 / 0x34326E69), 48000 Hz, 2 channels, s32 (24 bit), 2304 kb/s (default)
    Metadata:
      creation_time   : 2024-06-30T20:10:58.000000Z
      handler_name    : ?Apple Sound Media Handler
      vendor_id       : [0][0][0][0]
50 FPS
Input #0, mov,mp4,m4a,3gp,3g2,mj2, from 'HyperDeck_0001.mp4':
  Metadata:
    major_brand     : isom
    minor_version   : 1
    compatible_brands: iso4avc1isom
    creation_time   : 2024-06-30T20:23:12.000000Z
    com.apple.proapps.reel: 1
    com.apple.proapps.scene: 1
    com.apple.proapps.shot: 33
    com.blackmagic-design.camera.environment: interior
    com.blackmagic-design.camera.dayNight: day
    com.apple.proapps.cameraName: 1
    com.blackmagic-design.camera.dateRecorded: 20240630
  Duration: 00:02:09.70, start: 0.000000, bitrate: 18524 kb/s
  Stream #0:0(eng): Video: hevc (Rext) (hvc1 / 0x31637668), yuv422p10le(tv, progressive), 3840x2160, 16212 kb/s, SAR 1:1 DAR 16:9, 50 fps, 50 tbr, 50 tbn, 50 tbc (default)
    Metadata:
      creation_time   : 2024-06-30T20:23:12.000000Z
      handler_name    : ?Apple Video Media Handler
      vendor_id       : BMAG
      encoder         : H265/HVC
  Stream #0:1(eng): Audio: pcm_s24le (in24 / 0x34326E69), 48000 Hz, 2 channels, s32 (24 bit), 2304 kb/s (default)
    Metadata:
      creation_time   : 2024-06-30T20:23:12.000000Z
      handler_name    : ?Apple Sound Media Handler
      vendor_id       : [0][0][0][0]
30 FPS
Input #0, mov,mp4,m4a,3gp,3g2,mj2, from 'HyperDeck_0001.mp4':
  Metadata:
    major_brand     : isom
    minor_version   : 1
    compatible_brands: iso4avc1isom
    creation_time   : 2024-06-30T20:34:57.000000Z
    com.apple.proapps.reel: 1
    com.apple.proapps.scene: 1
    com.apple.proapps.shot: 37
    com.blackmagic-design.camera.environment: interior
    com.blackmagic-design.camera.dayNight: day
    com.apple.proapps.cameraName: 1
    com.blackmagic-design.camera.dateRecorded: 20240630
  Duration: 00:02:08.07, start: 0.000000, bitrate: 17835 kb/s
  Stream #0:0(eng): Video: hevc (Rext) (hvc1 / 0x31637668), yuv422p10le(tv, progressive), 3840x2160, 15524 kb/s, SAR 1:1 DAR 16:9, 30 fps, 30 tbr, 30 tbn, 30 tbc (default)
    Metadata:
      creation_time   : 2024-06-30T20:34:57.000000Z
      handler_name    : ?Apple Video Media Handler
      vendor_id       : BMAG
      encoder         : H265/HVC
  Stream #0:1(eng): Audio: pcm_s24le (in24 / 0x34326E69), 48000 Hz, 2 channels, s32 (24 bit), 2304 kb/s (default)
    Metadata:
      creation_time   : 2024-06-30T20:34:57.000000Z
      handler_name    : ?Apple Sound Media Handler
      vendor_id       : [0][0][0][0]
29.97 FPS
Input #0, mov,mp4,m4a,3gp,3g2,mj2, from 'HyperDeck_0001.mp4':
  Metadata:
    major_brand     : isom
    minor_version   : 1
    compatible_brands: iso4avc1isom
    creation_time   : 2024-06-30T20:57:20.000000Z
    com.apple.proapps.reel: 1
    com.apple.proapps.scene: 1
    com.apple.proapps.shot: 45
    com.blackmagic-design.camera.environment: interior
    com.blackmagic-design.camera.dayNight: day
    com.apple.proapps.cameraName: 1
    com.blackmagic-design.camera.dateRecorded: 20240630
  Duration: 00:02:08.80, start: 0.000000, bitrate: 20787 kb/s
  Stream #0:0(eng): Video: hevc (Rext) (hvc1 / 0x31637668), yuv422p10le(tv, progressive), 3840x2160, 18475 kb/s, SAR 1:1 DAR 16:9, 29.97 fps, 29.97 tbr, 30k tbn, 29.97 tbc (default)
    Metadata:
      creation_time   : 2024-06-30T20:57:20.000000Z
      handler_name    : ?Apple Video Media Handler
      vendor_id       : BMAG
      encoder         : H265/HVC
  Stream #0:1(eng): Audio: pcm_s24le (in24 / 0x34326E69), 48000 Hz, 2 channels, s32 (24 bit), 2304 kb/s (default)
    Metadata:
      creation_time   : 2024-06-30T20:57:20.000000Z
      handler_name    : ?Apple Sound Media Handler
      vendor_id       : [0][0][0][0]
25 FPS
Input #0, mov,mp4,m4a,3gp,3g2,mj2, from 'HyperDeck_0001.mp4':
  Metadata:
    major_brand     : isom
    minor_version   : 1
    compatible_brands: iso4avc1isom
    creation_time   : 2024-06-30T21:08:54.000000Z
    com.apple.proapps.reel: 1
    com.apple.proapps.scene: 1
    com.apple.proapps.shot: 49
    com.blackmagic-design.camera.environment: interior
    com.blackmagic-design.camera.dayNight: day
    com.apple.proapps.cameraName: 1
    com.blackmagic-design.camera.dateRecorded: 20240630
  Duration: 00:02:09.56, start: 0.000000, bitrate: 20077 kb/s
  Stream #0:0(eng): Video: hevc (Rext) (hvc1 / 0x31637668), yuv422p10le(tv, progressive), 3840x2160, 17766 kb/s, SAR 1:1 DAR 16:9, 25 fps, 25 tbr, 25 tbn, 25 tbc (default)
    Metadata:
      creation_time   : 2024-06-30T21:08:54.000000Z
      handler_name    : ?Apple Video Media Handler
      vendor_id       : BMAG
      encoder         : H265/HVC
  Stream #0:1(eng): Audio: pcm_s24le (in24 / 0x34326E69), 48000 Hz, 2 channels, s32 (24 bit), 2304 kb/s (default)
    Metadata:
      creation_time   : 2024-06-30T21:08:54.000000Z
      handler_name    : ?Apple Sound Media Handler
      vendor_id       : [0][0][0][0]
24 FPS
Input #0, mov,mp4,m4a,3gp,3g2,mj2, from 'HyperDeck_0008.mp4':
  Metadata:
    major_brand     : isom
    minor_version   : 1
    compatible_brands: iso4avc1isom
    creation_time   : 2024-06-30T21:26:50.000000Z
    com.apple.proapps.reel: 1
    com.apple.proapps.scene: 1
    com.apple.proapps.shot: 56
    com.blackmagic-design.camera.environment: interior
    com.blackmagic-design.camera.dayNight: day
    com.apple.proapps.cameraName: 1
    com.blackmagic-design.camera.dateRecorded: 20240630
  Duration: 00:02:07.71, start: 0.000000, bitrate: 20275 kb/s
  Stream #0:0(eng): Video: hevc (Rext) (hvc1 / 0x31637668), yuv422p10le(tv, progressive), 3840x2160, 17965 kb/s, SAR 1:1 DAR 16:9, 24 fps, 24 tbr, 24 tbn, 24 tbc (default)
    Metadata:
      creation_time   : 2024-06-30T21:26:50.000000Z
      handler_name    : ?Apple Video Media Handler
      vendor_id       : BMAG
      encoder         : H265/HVC
  Stream #0:1(eng): Audio: pcm_s24le (in24 / 0x34326E69), 48000 Hz, 2 channels, s32 (24 bit), 2304 kb/s (default)
    Metadata:
      creation_time   : 2024-06-30T21:26:50.000000Z
      handler_name    : ?Apple Sound Media Handler
      vendor_id       : [0][0][0][0]
23.98 FPS
Input #0, mov,mp4,m4a,3gp,3g2,mj2, from 'HyperDeck_0009.mp4':
  Metadata:
    major_brand     : isom
    minor_version   : 1
    compatible_brands: iso4avc1isom
    creation_time   : 2024-06-30T21:32:12.000000Z
    com.apple.proapps.reel: 1
    com.apple.proapps.scene: 1
    com.apple.proapps.shot: 57
    com.blackmagic-design.camera.environment: interior
    com.blackmagic-design.camera.dayNight: day
    com.apple.proapps.cameraName: 1
    com.blackmagic-design.camera.dateRecorded: 20240630
  Duration: 00:02:08.46, start: 0.000000, bitrate: 20462 kb/s
  Stream #0:0(eng): Video: hevc (Rext) (hvc1 / 0x31637668), yuv422p10le(tv, progressive), 3840x2160, 18152 kb/s, SAR 1:1 DAR 16:9, 23.98 fps, 23.98 tbr, 24k tbn, 23.98 tbc (default)
    Metadata:
      creation_time   : 2024-06-30T21:32:12.000000Z
      handler_name    : ?Apple Video Media Handler
      vendor_id       : BMAG
      encoder         : H265/HVC
  Stream #0:1(eng): Audio: pcm_s24le (in24 / 0x34326E69), 48000 Hz, 2 channels, s32 (24 bit), 2304 kb/s (default)
    Metadata:
      creation_time   : 2024-06-30T21:32:12.000000Z
      handler_name    : ?Apple Sound Media Handler
      vendor_id       : [0][0][0][0]

FullHD (1920×1080)

60 FPS
Input #0, mov,mp4,m4a,3gp,3g2,mj2, from 'HyperDeck_0001.mp4':
  Metadata:
    major_brand     : isom
    minor_version   : 1
    compatible_brands: iso4avc1isom
    creation_time   : 2024-07-01T17:26:45.000000Z
    com.apple.proapps.reel: 1
    com.apple.proapps.scene: 1
    com.apple.proapps.shot: 63
    com.blackmagic-design.camera.environment: interior
    com.blackmagic-design.camera.dayNight: day
    com.apple.proapps.cameraName: 1
    com.blackmagic-design.camera.dateRecorded: 20240701
  Duration: 00:03:35.67, start: 0.000000, bitrate: 23968 kb/s
  Stream #0:0(eng): Video: h264 (High 4:2:2) (avc1 / 0x31637661), yuv422p10le(tv, bt709, progressive), 1920x1080, 21655 kb/s, SAR 1:1 DAR 16:9, 60 fps, 60 tbr, 60 tbn, 120 tbc (default)
    Metadata:
      creation_time   : 2024-07-01T17:26:45.000000Z
      handler_name    : ?Apple Video Media Handler
      vendor_id       : BMAG
      encoder         : H264/AVC
  Stream #0:1(eng): Audio: pcm_s24le (in24 / 0x34326E69), 48000 Hz, 2 channels, s32 (24 bit), 2304 kb/s (default)
    Metadata:
      creation_time   : 2024-07-01T17:26:45.000000Z
      handler_name    : ?Apple Sound Media Handler
      vendor_id       : [0][0][0][0]
59.94 FPS
Input #0, mov,mp4,m4a,3gp,3g2,mj2, from 'HyperDeck_0005.mp4':
  Metadata:
    major_brand     : isom
    minor_version   : 1
    compatible_brands: iso4avc1isom
    creation_time   : 2024-07-01T17:43:42.000000Z
    com.apple.proapps.reel: 1
    com.apple.proapps.scene: 1
    com.apple.proapps.shot: 67
    com.blackmagic-design.camera.environment: interior
    com.blackmagic-design.camera.dayNight: day
    com.apple.proapps.cameraName: 1
    com.blackmagic-design.camera.dateRecorded: 20240701
  Duration: 00:03:45.89, start: 0.000000, bitrate: 23456 kb/s
  Stream #0:0(eng): Video: h264 (High 4:2:2) (avc1 / 0x31637661), yuv422p10le(tv, bt709, progressive), 1920x1080, 21142 kb/s, SAR 1:1 DAR 16:9, 59.94 fps, 59.94 tbr, 60k tbn, 120k tbc (default)
    Metadata:
      creation_time   : 2024-07-01T17:43:42.000000Z
      handler_name    : ?Apple Video Media Handler
      vendor_id       : BMAG
      encoder         : H264/AVC
  Stream #0:1(eng): Audio: pcm_s24le (in24 / 0x34326E69), 48000 Hz, 2 channels, s32 (24 bit), 2304 kb/s (default)
    Metadata:
      creation_time   : 2024-07-01T17:43:42.000000Z
      handler_name    : ?Apple Sound Media Handler
      vendor_id       : [0][0][0][0]
50 FPS
Input #0, mov,mp4,m4a,3gp,3g2,mj2, from 'HyperDeck_0009.mp4':
  Metadata:
    major_brand     : isom
    minor_version   : 1
    compatible_brands: iso4avc1isom
    creation_time   : 2024-07-01T17:59:42.000000Z
    com.apple.proapps.reel: 1
    com.apple.proapps.scene: 1
    com.apple.proapps.shot: 71
    com.blackmagic-design.camera.environment: interior
    com.blackmagic-design.camera.dayNight: day
    com.apple.proapps.cameraName: 1
    com.blackmagic-design.camera.dateRecorded: 20240701
  Duration: 00:03:21.94, start: 0.000000, bitrate: 24206 kb/s
  Stream #0:0(eng): Video: h264 (High 4:2:2) (avc1 / 0x31637661), yuv422p10le(tv, bt709, progressive), 1920x1080, 21893 kb/s, SAR 1:1 DAR 16:9, 50 fps, 50 tbr, 50 tbn, 100 tbc (default)
    Metadata:
      creation_time   : 2024-07-01T17:59:42.000000Z
      handler_name    : ?Apple Video Media Handler
      vendor_id       : BMAG
      encoder         : H264/AVC
  Stream #0:1(eng): Audio: pcm_s24le (in24 / 0x34326E69), 48000 Hz, 2 channels, s32 (24 bit), 2304 kb/s (default)
    Metadata:
      creation_time   : 2024-07-01T17:59:42.000000Z
      handler_name    : ?Apple Sound Media Handler
      vendor_id       : [0][0][0][0]
30 FPS
Input #0, mov,mp4,m4a,3gp,3g2,mj2, from 'HyperDeck_0013.mp4':
  Metadata:
    major_brand     : isom
    minor_version   : 1
    compatible_brands: iso4avc1isom
    creation_time   : 2024-07-01T18:14:58.000000Z
    com.apple.proapps.reel: 1
    com.apple.proapps.scene: 1
    com.apple.proapps.shot: 75
    com.blackmagic-design.camera.environment: interior
    com.blackmagic-design.camera.dayNight: day
    com.apple.proapps.cameraName: 1
    com.blackmagic-design.camera.dateRecorded: 20240701
  Duration: 00:03:46.83, start: 0.000000, bitrate: 19365 kb/s
  Stream #0:0(eng): Video: h264 (High 4:2:2) (avc1 / 0x31637661), yuv422p10le(tv, bt709, progressive), 1920x1080, 17054 kb/s, SAR 1:1 DAR 16:9, 30 fps, 30 tbr, 30 tbn, 60 tbc (default)
    Metadata:
      creation_time   : 2024-07-01T18:14:58.000000Z
      handler_name    : ?Apple Video Media Handler
      vendor_id       : BMAG
      encoder         : H264/AVC
  Stream #0:1(eng): Audio: pcm_s24le (in24 / 0x34326E69), 48000 Hz, 2 channels, s32 (24 bit), 2304 kb/s (default)
    Metadata:
      creation_time   : 2024-07-01T18:14:58.000000Z
      handler_name    : ?Apple Sound Media Handler
      vendor_id       : [0][0][0][0]
29.97 FPS
Input #0, mov,mp4,m4a,3gp,3g2,mj2, from 'HyperDeck_0017.mp4':
  Metadata:
    major_brand     : isom
    minor_version   : 1
    compatible_brands: iso4avc1isom
    creation_time   : 2024-07-01T18:30:47.000000Z
    com.apple.proapps.reel: 1
    com.apple.proapps.scene: 1
    com.apple.proapps.shot: 79
    com.blackmagic-design.camera.environment: interior
    com.blackmagic-design.camera.dayNight: day
    com.apple.proapps.cameraName: 1
    com.blackmagic-design.camera.dateRecorded: 20240701
  Duration: 00:03:32.38, start: 0.000000, bitrate: 19547 kb/s
  Stream #0:0(eng): Video: h264 (High 4:2:2) (avc1 / 0x31637661), yuv422p10le(tv, bt709, progressive), 1920x1080, 17237 kb/s, SAR 1:1 DAR 16:9, 29.97 fps, 29.97 tbr, 30k tbn, 60k tbc (default)
    Metadata:
      creation_time   : 2024-07-01T18:30:47.000000Z
      handler_name    : ?Apple Video Media Handler
      vendor_id       : BMAG
      encoder         : H264/AVC
  Stream #0:1(eng): Audio: pcm_s24le (in24 / 0x34326E69), 48000 Hz, 2 channels, s32 (24 bit), 2304 kb/s (default)
    Metadata:
      creation_time   : 2024-07-01T18:30:47.000000Z
      handler_name    : ?Apple Sound Media Handler
      vendor_id       : [0][0][0][0]
25 FPS
Input #0, mov,mp4,m4a,3gp,3g2,mj2, from 'HyperDeck_0021.mp4':
  Metadata:
    major_brand     : isom
    minor_version   : 1
    compatible_brands: iso4avc1isom
    creation_time   : 2024-07-01T18:45:51.000000Z
    com.apple.proapps.reel: 1
    com.apple.proapps.scene: 1
    com.apple.proapps.shot: 83
    com.blackmagic-design.camera.environment: interior
    com.blackmagic-design.camera.dayNight: day
    com.apple.proapps.cameraName: 1
    com.blackmagic-design.camera.dateRecorded: 20240701
  Duration: 00:03:30.16, start: 0.000000, bitrate: 17308 kb/s
  Stream #0:0(eng): Video: h264 (High 4:2:2) (avc1 / 0x31637661), yuv422p10le(tv, bt709, progressive), 1920x1080, 14998 kb/s, SAR 1:1 DAR 16:9, 25 fps, 25 tbr, 25 tbn, 50 tbc (default)
    Metadata:
      creation_time   : 2024-07-01T18:45:51.000000Z
      handler_name    : ?Apple Video Media Handler
      vendor_id       : BMAG
      encoder         : H264/AVC
  Stream #0:1(eng): Audio: pcm_s24le (in24 / 0x34326E69), 48000 Hz, 2 channels, s32 (24 bit), 2304 kb/s (default)
    Metadata:
      creation_time   : 2024-07-01T18:45:51.000000Z
      handler_name    : ?Apple Sound Media Handler
      vendor_id       : [0][0][0][0]
24 FPS
Input #0, mov,mp4,m4a,3gp,3g2,mj2, from 'HyperDeck_0025.mp4':
  Metadata:
    major_brand     : isom
    minor_version   : 1
    compatible_brands: iso4avc1isom
    creation_time   : 2024-07-01T19:01:09.000000Z
    com.apple.proapps.reel: 1
    com.apple.proapps.scene: 1
    com.apple.proapps.shot: 87
    com.blackmagic-design.camera.environment: interior
    com.blackmagic-design.camera.dayNight: day
    com.apple.proapps.cameraName: 1
    com.blackmagic-design.camera.dateRecorded: 20240701
  Duration: 00:03:29.00, start: 0.000000, bitrate: 16843 kb/s
  Stream #0:0(eng): Video: h264 (High 4:2:2) (avc1 / 0x31637661), yuv422p10le(tv, bt709, progressive), 1920x1080, 14534 kb/s, SAR 1:1 DAR 16:9, 24 fps, 24 tbr, 24 tbn, 48 tbc (default)
    Metadata:
      creation_time   : 2024-07-01T19:01:09.000000Z
      handler_name    : ?Apple Video Media Handler
      vendor_id       : BMAG
      encoder         : H264/AVC
  Stream #0:1(eng): Audio: pcm_s24le (in24 / 0x34326E69), 48000 Hz, 2 channels, s32 (24 bit), 2304 kb/s (default)
    Metadata:
      creation_time   : 2024-07-01T19:01:09.000000Z
      handler_name    : ?Apple Sound Media Handler
      vendor_id       : [0][0][0][0]
23.98 FPS
Input #0, mov,mp4,m4a,3gp,3g2,mj2, from 'HyperDeck_0029.mp4':
  Metadata:
    major_brand     : isom
    minor_version   : 1
    compatible_brands: iso4avc1isom
    creation_time   : 2024-07-01T19:16:42.000000Z
    com.apple.proapps.reel: 1
    com.apple.proapps.scene: 1
    com.apple.proapps.shot: 91
    com.blackmagic-design.camera.environment: interior
    com.blackmagic-design.camera.dayNight: day
    com.apple.proapps.cameraName: 1
    com.blackmagic-design.camera.dateRecorded: 20240701
  Duration: 00:03:35.63, start: 0.000000, bitrate: 16681 kb/s
  Stream #0:0(eng): Video: h264 (High 4:2:2) (avc1 / 0x31637661), yuv422p10le(tv, bt709, progressive), 1920x1080, 14370 kb/s, SAR 1:1 DAR 16:9, 23.98 fps, 23.98 tbr, 24k tbn, 48k tbc (default)
    Metadata:
      creation_time   : 2024-07-01T19:16:42.000000Z
      handler_name    : ?Apple Video Media Handler
      vendor_id       : BMAG
      encoder         : H264/AVC
  Stream #0:1(eng): Audio: pcm_s24le (in24 / 0x34326E69), 48000 Hz, 2 channels, s32 (24 bit), 2304 kb/s (default)
    Metadata:
      creation_time   : 2024-07-01T19:16:42.000000Z
      handler_name    : ?Apple Sound Media Handler
      vendor_id       : [0][0][0][0]

H.264/5 High

UltraHD

60 FPS
Input #0, mov,mp4,m4a,3gp,3g2,mj2, from 'HyperDeck_0004.mp4':
  Metadata:
    major_brand     : isom
    minor_version   : 1
    compatible_brands: iso4avc1isom
    creation_time   : 2024-06-30T19:59:18.000000Z
    com.apple.proapps.reel: 1
    com.apple.proapps.scene: 1
    com.apple.proapps.shot: 26
    com.blackmagic-design.camera.environment: interior
    com.blackmagic-design.camera.dayNight: day
    com.apple.proapps.cameraName: 1
    com.blackmagic-design.camera.dateRecorded: 20240630
  Duration: 00:02:07.72, start: 0.000000, bitrate: 17023 kb/s
  Stream #0:0(eng): Video: hevc (Main 10) (hvc1 / 0x31637668), yuv420p10le(tv, progressive), 3840x2160, 14709 kb/s, SAR 1:1 DAR 16:9, 60 fps, 60 tbr, 60 tbn, 60 tbc (default)
    Metadata:
      creation_time   : 2024-06-30T19:59:18.000000Z
      handler_name    : ?Apple Video Media Handler
      vendor_id       : BMAG
      encoder         : H265/HVC
  Stream #0:1(eng): Audio: pcm_s24le (in24 / 0x34326E69), 48000 Hz, 2 channels, s32 (24 bit), 2304 kb/s (default)
    Metadata:
      creation_time   : 2024-06-30T19:59:18.000000Z
      handler_name    : ?Apple Sound Media Handler
      vendor_id       : [0][0][0][0]
59.94 FPS
Input #0, mov,mp4,m4a,3gp,3g2,mj2, from 'HyperDeck_0002.mp4':
  Metadata:
    major_brand     : isom
    minor_version   : 1
    compatible_brands: iso4avc1isom
    creation_time   : 2024-06-30T20:13:40.000000Z
    com.apple.proapps.reel: 1
    com.apple.proapps.scene: 1
    com.apple.proapps.shot: 30
    com.blackmagic-design.camera.environment: interior
    com.blackmagic-design.camera.dayNight: day
    com.apple.proapps.cameraName: 1
    com.blackmagic-design.camera.dateRecorded: 20240630
  Duration: 00:02:07.38, start: 0.000000, bitrate: 19117 kb/s
  Stream #0:0(eng): Video: hevc (Main 10) (hvc1 / 0x31637668), yuv420p10le(tv, progressive), 3840x2160, 16803 kb/s, SAR 1:1 DAR 16:9, 59.94 fps, 59.94 tbr, 60k tbn, 59.94 tbc (default)
    Metadata:
      creation_time   : 2024-06-30T20:13:40.000000Z
      handler_name    : ?Apple Video Media Handler
      vendor_id       : BMAG
      encoder         : H265/HVC
  Stream #0:1(eng): Audio: pcm_s24le (in24 / 0x34326E69), 48000 Hz, 2 channels, s32 (24 bit), 2304 kb/s (default)
    Metadata:
      creation_time   : 2024-06-30T20:13:40.000000Z
      handler_name    : ?Apple Sound Media Handler
      vendor_id       : [0][0][0][0]
50 FPS
Input #0, mov,mp4,m4a,3gp,3g2,mj2, from 'HyperDeck_0002.mp4':
  Metadata:
    major_brand     : isom
    minor_version   : 1
    compatible_brands: iso4avc1isom
    creation_time   : 2024-06-30T20:25:38.000000Z
    com.apple.proapps.reel: 1
    com.apple.proapps.scene: 1
    com.apple.proapps.shot: 34
    com.blackmagic-design.camera.environment: interior
    com.blackmagic-design.camera.dayNight: day
    com.apple.proapps.cameraName: 1
    com.blackmagic-design.camera.dateRecorded: 20240630
  Duration: 00:02:07.70, start: 0.000000, bitrate: 17003 kb/s
  Stream #0:0(eng): Video: hevc (Main 10) (hvc1 / 0x31637668), yuv420p10le(tv, progressive), 3840x2160, 14689 kb/s, SAR 1:1 DAR 16:9, 50 fps, 50 tbr, 50 tbn, 50 tbc (default)
    Metadata:
      creation_time   : 2024-06-30T20:25:38.000000Z
      handler_name    : ?Apple Video Media Handler
      vendor_id       : BMAG
      encoder         : H265/HVC
  Stream #0:1(eng): Audio: pcm_s24le (in24 / 0x34326E69), 48000 Hz, 2 channels, s32 (24 bit), 2304 kb/s (default)
    Metadata:
      creation_time   : 2024-06-30T20:25:38.000000Z
      handler_name    : ?Apple Sound Media Handler
      vendor_id       : [0][0][0][0]
30 FPS
Input #0, mov,mp4,m4a,3gp,3g2,mj2, from 'HyperDeck_0002.mp4':
  Metadata:
    major_brand     : isom
    minor_version   : 1
    compatible_brands: iso4avc1isom
    creation_time   : 2024-06-30T20:37:23.000000Z
    com.apple.proapps.reel: 1
    com.apple.proapps.scene: 1
    com.apple.proapps.shot: 38
    com.blackmagic-design.camera.environment: interior
    com.blackmagic-design.camera.dayNight: day
    com.apple.proapps.cameraName: 1
    com.blackmagic-design.camera.dateRecorded: 20240630
  Duration: 00:02:07.17, start: 0.000000, bitrate: 16766 kb/s
  Stream #0:0(eng): Video: hevc (Main 10) (hvc1 / 0x31637668), yuv420p10le(tv, progressive), 3840x2160, 14455 kb/s, SAR 1:1 DAR 16:9, 30 fps, 30 tbr, 30 tbn, 30 tbc (default)
    Metadata:
      creation_time   : 2024-06-30T20:37:23.000000Z
      handler_name    : ?Apple Video Media Handler
      vendor_id       : BMAG
      encoder         : H265/HVC
  Stream #0:1(eng): Audio: pcm_s24le (in24 / 0x34326E69), 48000 Hz, 2 channels, s32 (24 bit), 2304 kb/s (default)
    Metadata:
      creation_time   : 2024-06-30T20:37:23.000000Z
      handler_name    : ?Apple Sound Media Handler
      vendor_id       : [0][0][0][0]
29.97 FPS
Input #0, mov,mp4,m4a,3gp,3g2,mj2, from 'HyperDeck_0002.mp4':
  Metadata:
    major_brand     : isom
    minor_version   : 1
    compatible_brands: iso4avc1isom
    creation_time   : 2024-06-30T20:59:41.000000Z
    com.apple.proapps.reel: 1
    com.apple.proapps.scene: 1
    com.apple.proapps.shot: 46
    com.blackmagic-design.camera.environment: interior
    com.blackmagic-design.camera.dayNight: day
    com.apple.proapps.cameraName: 1
    com.blackmagic-design.camera.dateRecorded: 20240630
  Duration: 00:02:08.63, start: 0.000000, bitrate: 19366 kb/s
  Stream #0:0(eng): Video: hevc (Main 10) (hvc1 / 0x31637668), yuv420p10le(tv, progressive), 3840x2160, 17055 kb/s, SAR 1:1 DAR 16:9, 29.97 fps, 29.97 tbr, 30k tbn, 29.97 tbc (default)
    Metadata:
      creation_time   : 2024-06-30T20:59:41.000000Z
      handler_name    : ?Apple Video Media Handler
      vendor_id       : BMAG
      encoder         : H265/HVC
  Stream #0:1(eng): Audio: pcm_s24le (in24 / 0x34326E69), 48000 Hz, 2 channels, s32 (24 bit), 2304 kb/s (default)
    Metadata:
      creation_time   : 2024-06-30T20:59:41.000000Z
      handler_name    : ?Apple Sound Media Handler
      vendor_id       : [0][0][0][0]
25 FPS
Input #0, mov,mp4,m4a,3gp,3g2,mj2, from 'HyperDeck_0002.mp4':
  Metadata:
    major_brand     : isom
    minor_version   : 1
    compatible_brands: iso4avc1isom
    creation_time   : 2024-06-30T21:11:23.000000Z
    com.apple.proapps.reel: 1
    com.apple.proapps.scene: 1
    com.apple.proapps.shot: 50
    com.blackmagic-design.camera.environment: interior
    com.blackmagic-design.camera.dayNight: day
    com.apple.proapps.cameraName: 1
    com.blackmagic-design.camera.dateRecorded: 20240630
  Duration: 00:02:09.52, start: 0.000000, bitrate: 18919 kb/s
  Stream #0:0(eng): Video: hevc (Main 10) (hvc1 / 0x31637668), yuv420p10le(tv, progressive), 3840x2160, 16608 kb/s, SAR 1:1 DAR 16:9, 25 fps, 25 tbr, 25 tbn, 25 tbc (default)
    Metadata:
      creation_time   : 2024-06-30T21:11:23.000000Z
      handler_name    : ?Apple Video Media Handler
      vendor_id       : BMAG
      encoder         : H265/HVC
  Stream #0:1(eng): Audio: pcm_s24le (in24 / 0x34326E69), 48000 Hz, 2 channels, s32 (24 bit), 2304 kb/s (default)
    Metadata:
      creation_time   : 2024-06-30T21:11:23.000000Z
      handler_name    : ?Apple Sound Media Handler
      vendor_id       : [0][0][0][0]
24 FPS
Input #0, mov,mp4,m4a,3gp,3g2,mj2, from 'HyperDeck_0007.mp4':
  Metadata:
    major_brand     : isom
    minor_version   : 1
    compatible_brands: iso4avc1isom
    creation_time   : 2024-06-30T21:24:26.000000Z
    com.apple.proapps.reel: 1
    com.apple.proapps.scene: 1
    com.apple.proapps.shot: 55
    com.blackmagic-design.camera.environment: interior
    com.blackmagic-design.camera.dayNight: day
    com.apple.proapps.cameraName: 1
    com.blackmagic-design.camera.dateRecorded: 20240630
  Duration: 00:02:08.50, start: 0.000000, bitrate: 19115 kb/s
  Stream #0:0(eng): Video: hevc (Main 10) (hvc1 / 0x31637668), yuv420p10le(tv, progressive), 3840x2160, 16804 kb/s, SAR 1:1 DAR 16:9, 24 fps, 24 tbr, 24 tbn, 24 tbc (default)
    Metadata:
      creation_time   : 2024-06-30T21:24:26.000000Z
      handler_name    : ?Apple Video Media Handler
      vendor_id       : BMAG
      encoder         : H265/HVC
  Stream #0:1(eng): Audio: pcm_s24le (in24 / 0x34326E69), 48000 Hz, 2 channels, s32 (24 bit), 2304 kb/s (default)
    Metadata:
      creation_time   : 2024-06-30T21:24:26.000000Z
      handler_name    : ?Apple Sound Media Handler
      vendor_id       : [0][0][0][0]
23.98 FPS
Input #0, mov,mp4,m4a,3gp,3g2,mj2, from 'HyperDeck_0010.mp4':
  Metadata:
    major_brand     : isom
    minor_version   : 1
    compatible_brands: iso4avc1isom
    creation_time   : 2024-06-30T21:34:34.000000Z
    com.apple.proapps.reel: 1
    com.apple.proapps.scene: 1
    com.apple.proapps.shot: 58
    com.blackmagic-design.camera.environment: interior
    com.blackmagic-design.camera.dayNight: day
    com.apple.proapps.cameraName: 1
    com.blackmagic-design.camera.dateRecorded: 20240630
  Duration: 00:02:07.42, start: 0.000000, bitrate: 18891 kb/s
  Stream #0:0(eng): Video: hevc (Main 10) (hvc1 / 0x31637668), yuv420p10le(tv, progressive), 3840x2160, 16580 kb/s, SAR 1:1 DAR 16:9, 23.98 fps, 23.98 tbr, 24k tbn, 23.98 tbc (default)
    Metadata:
      creation_time   : 2024-06-30T21:34:34.000000Z
      handler_name    : ?Apple Video Media Handler
      vendor_id       : BMAG
      encoder         : H265/HVC
  Stream #0:1(eng): Audio: pcm_s24le (in24 / 0x34326E69), 48000 Hz, 2 channels, s32 (24 bit), 2304 kb/s (default)
    Metadata:
      creation_time   : 2024-06-30T21:34:34.000000Z
      handler_name    : ?Apple Sound Media Handler
      vendor_id       : [0][0][0][0]

FullHD

60 FPS
Input #0, mov,mp4,m4a,3gp,3g2,mj2, from 'HyperDeck_0002.mp4':
  Metadata:
    major_brand     : isom
    minor_version   : 1
    compatible_brands: iso4avc1isom
    creation_time   : 2024-07-01T17:30:44.000000Z
    com.apple.proapps.reel: 1
    com.apple.proapps.scene: 1
    com.apple.proapps.shot: 64
    com.blackmagic-design.camera.environment: interior
    com.blackmagic-design.camera.dayNight: day
    com.apple.proapps.cameraName: 1
    com.blackmagic-design.camera.dateRecorded: 20240701
  Duration: 00:03:36.37, start: 0.000000, bitrate: 24628 kb/s
  Stream #0:0(eng): Video: h264 (Main) (avc1 / 0x31637661), yuv420p(tv, bt709, progressive), 1920x1080, 22314 kb/s, SAR 1:1 DAR 16:9, 60 fps, 60 tbr, 60 tbn, 120 tbc (default)
    Metadata:
      creation_time   : 2024-07-01T17:30:44.000000Z
      handler_name    : ?Apple Video Media Handler
      vendor_id       : BMAG
      encoder         : H264/AVC
  Stream #0:1(eng): Audio: pcm_s24le (in24 / 0x34326E69), 48000 Hz, 2 channels, s32 (24 bit), 2304 kb/s (default)
    Metadata:
      creation_time   : 2024-07-01T17:30:44.000000Z
      handler_name    : ?Apple Sound Media Handler
      vendor_id       : [0][0][0][0]
59.94 FPS
Input #0, mov,mp4,m4a,3gp,3g2,mj2, from 'HyperDeck_0006.mp4':
  Metadata:
    major_brand     : isom
    minor_version   : 1
    compatible_brands: iso4avc1isom
    creation_time   : 2024-07-01T17:47:41.000000Z
    com.apple.proapps.reel: 1
    com.apple.proapps.scene: 1
    com.apple.proapps.shot: 68
    com.blackmagic-design.camera.environment: interior
    com.blackmagic-design.camera.dayNight: day
    com.apple.proapps.cameraName: 1
    com.blackmagic-design.camera.dateRecorded: 20240701
  Duration: 00:03:37.80, start: 0.000000, bitrate: 24482 kb/s
  Stream #0:0(eng): Video: h264 (Main) (avc1 / 0x31637661), yuv420p(tv, bt709, progressive), 1920x1080, 22168 kb/s, SAR 1:1 DAR 16:9, 59.94 fps, 59.94 tbr, 60k tbn, 120k tbc (default)
    Metadata:
      creation_time   : 2024-07-01T17:47:41.000000Z
      handler_name    : ?Apple Video Media Handler
      vendor_id       : BMAG
      encoder         : H264/AVC
  Stream #0:1(eng): Audio: pcm_s24le (in24 / 0x34326E69), 48000 Hz, 2 channels, s32 (24 bit), 2304 kb/s (default)
    Metadata:
      creation_time   : 2024-07-01T17:47:41.000000Z
      handler_name    : ?Apple Sound Media Handler
      vendor_id       : [0][0][0][0]
50 FPS
Input #0, mov,mp4,m4a,3gp,3g2,mj2, from 'HyperDeck_0010.mp4':
  Metadata:
    major_brand     : isom
    minor_version   : 1
    compatible_brands: iso4avc1isom
    creation_time   : 2024-07-01T18:03:24.000000Z
    com.apple.proapps.reel: 1
    com.apple.proapps.scene: 1
    com.apple.proapps.shot: 72
    com.blackmagic-design.camera.environment: interior
    com.blackmagic-design.camera.dayNight: day
    com.apple.proapps.cameraName: 1
    com.blackmagic-design.camera.dateRecorded: 20240701
  Duration: 00:03:22.94, start: 0.000000, bitrate: 23945 kb/s
  Stream #0:0(eng): Video: h264 (Main) (avc1 / 0x31637661), yuv420p(tv, bt709, progressive), 1920x1080, 21633 kb/s, SAR 1:1 DAR 16:9, 50 fps, 50 tbr, 50 tbn, 100 tbc (default)
    Metadata:
      creation_time   : 2024-07-01T18:03:24.000000Z
      handler_name    : ?Apple Video Media Handler
      vendor_id       : BMAG
      encoder         : H264/AVC
  Stream #0:1(eng): Audio: pcm_s24le (in24 / 0x34326E69), 48000 Hz, 2 channels, s32 (24 bit), 2304 kb/s (default)
    Metadata:
      creation_time   : 2024-07-01T18:03:24.000000Z
      handler_name    : ?Apple Sound Media Handler
      vendor_id       : [0][0][0][0]
30 FPS
Input #0, mov,mp4,m4a,3gp,3g2,mj2, from 'HyperDeck_0014.mp4':
  Metadata:
    major_brand     : isom
    minor_version   : 1
    compatible_brands: iso4avc1isom
    creation_time   : 2024-07-01T18:18:56.000000Z
    com.apple.proapps.reel: 1
    com.apple.proapps.scene: 1
    com.apple.proapps.shot: 76
    com.blackmagic-design.camera.environment: interior
    com.blackmagic-design.camera.dayNight: day
    com.apple.proapps.cameraName: 1
    com.blackmagic-design.camera.dateRecorded: 20240701
  Duration: 00:03:39.73, start: 0.000000, bitrate: 18800 kb/s
  Stream #0:0(eng): Video: h264 (Main) (avc1 / 0x31637661), yuv420p(tv, bt709, progressive), 1920x1080, 16490 kb/s, SAR 1:1 DAR 16:9, 30 fps, 30 tbr, 30 tbn, 60 tbc (default)
    Metadata:
      creation_time   : 2024-07-01T18:18:56.000000Z
      handler_name    : ?Apple Video Media Handler
      vendor_id       : BMAG
      encoder         : H264/AVC
  Stream #0:1(eng): Audio: pcm_s24le (in24 / 0x34326E69), 48000 Hz, 2 channels, s32 (24 bit), 2304 kb/s (default)
    Metadata:
      creation_time   : 2024-07-01T18:18:56.000000Z
      handler_name    : ?Apple Sound Media Handler
      vendor_id       : [0][0][0][0]
29.97 FPS
Input #0, mov,mp4,m4a,3gp,3g2,mj2, from 'HyperDeck_0018.mp4':
  Metadata:
    major_brand     : isom
    minor_version   : 1
    compatible_brands: iso4avc1isom
    creation_time   : 2024-07-01T18:34:28.000000Z
    com.apple.proapps.reel: 1
    com.apple.proapps.scene: 1
    com.apple.proapps.shot: 80
    com.blackmagic-design.camera.environment: interior
    com.blackmagic-design.camera.dayNight: day
    com.apple.proapps.cameraName: 1
    com.blackmagic-design.camera.dateRecorded: 20240701
  Duration: 00:03:31.21, start: 0.000000, bitrate: 18927 kb/s
  Stream #0:0(eng): Video: h264 (Main) (avc1 / 0x31637661), yuv420p(tv, bt709, progressive), 1920x1080, 16616 kb/s, SAR 1:1 DAR 16:9, 29.97 fps, 29.97 tbr, 30k tbn, 60k tbc (default)
    Metadata:
      creation_time   : 2024-07-01T18:34:28.000000Z
      handler_name    : ?Apple Video Media Handler
      vendor_id       : BMAG
      encoder         : H264/AVC
  Stream #0:1(eng): Audio: pcm_s24le (in24 / 0x34326E69), 48000 Hz, 2 channels, s32 (24 bit), 2304 kb/s (default)
    Metadata:
      creation_time   : 2024-07-01T18:34:28.000000Z
      handler_name    : ?Apple Sound Media Handler
      vendor_id       : [0][0][0][0]
25 FPS
Input #0, mov,mp4,m4a,3gp,3g2,mj2, from 'HyperDeck_0022.mp4':
  Metadata:
    major_brand     : isom
    minor_version   : 1
    compatible_brands: iso4avc1isom
    creation_time   : 2024-07-01T18:49:34.000000Z
    com.apple.proapps.reel: 1
    com.apple.proapps.scene: 1
    com.apple.proapps.shot: 84
    com.blackmagic-design.camera.environment: interior
    com.blackmagic-design.camera.dayNight: day
    com.apple.proapps.cameraName: 1
    com.blackmagic-design.camera.dateRecorded: 20240701
  Duration: 00:03:37.24, start: 0.000000, bitrate: 16436 kb/s
  Stream #0:0(eng): Video: h264 (Main) (avc1 / 0x31637661), yuv420p(tv, bt709, progressive), 1920x1080, 14126 kb/s, SAR 1:1 DAR 16:9, 25 fps, 25 tbr, 25 tbn, 50 tbc (default)
    Metadata:
      creation_time   : 2024-07-01T18:49:34.000000Z
      handler_name    : ?Apple Video Media Handler
      vendor_id       : BMAG
      encoder         : H264/AVC
  Stream #0:1(eng): Audio: pcm_s24le (in24 / 0x34326E69), 48000 Hz, 2 channels, s32 (24 bit), 2304 kb/s (default)
    Metadata:
      creation_time   : 2024-07-01T18:49:34.000000Z
      handler_name    : ?Apple Sound Media Handler
      vendor_id       : [0][0][0][0]
24 FPS
Input #0, mov,mp4,m4a,3gp,3g2,mj2, from 'HyperDeck_0026.mp4':
  Metadata:
    major_brand     : isom
    minor_version   : 1
    compatible_brands: iso4avc1isom
    creation_time   : 2024-07-01T19:05:10.000000Z
    com.apple.proapps.reel: 1
    com.apple.proapps.scene: 1
    com.apple.proapps.shot: 88
    com.blackmagic-design.camera.environment: interior
    com.blackmagic-design.camera.dayNight: day
    com.apple.proapps.cameraName: 1
    com.blackmagic-design.camera.dateRecorded: 20240701
  Duration: 00:03:32.58, start: 0.000000, bitrate: 15958 kb/s
  Stream #0:0(eng): Video: h264 (Main) (avc1 / 0x31637661), yuv420p(tv, bt709, progressive), 1920x1080, 13648 kb/s, SAR 1:1 DAR 16:9, 24 fps, 24 tbr, 24 tbn, 48 tbc (default)
    Metadata:
      creation_time   : 2024-07-01T19:05:10.000000Z
      handler_name    : ?Apple Video Media Handler
      vendor_id       : BMAG
      encoder         : H264/AVC
  Stream #0:1(eng): Audio: pcm_s24le (in24 / 0x34326E69), 48000 Hz, 2 channels, s32 (24 bit), 2304 kb/s (default)
    Metadata:
      creation_time   : 2024-07-01T19:05:10.000000Z
      handler_name    : ?Apple Sound Media Handler
      vendor_id       : [0][0][0][0]
23.98 FPS
Input #0, mov,mp4,m4a,3gp,3g2,mj2, from 'HyperDeck_0030.mp4':
  Metadata:
    major_brand     : isom
    minor_version   : 1
    compatible_brands: iso4avc1isom
    creation_time   : 2024-07-01T19:20:27.000000Z
    com.apple.proapps.reel: 1
    com.apple.proapps.scene: 1
    com.apple.proapps.shot: 92
    com.blackmagic-design.camera.environment: interior
    com.blackmagic-design.camera.dayNight: day
    com.apple.proapps.cameraName: 1
    com.blackmagic-design.camera.dateRecorded: 20240701
  Duration: 00:03:47.31, start: 0.000000, bitrate: 15698 kb/s
  Stream #0:0(eng): Video: h264 (Main) (avc1 / 0x31637661), yuv420p(tv, bt709, progressive), 1920x1080, 13388 kb/s, SAR 1:1 DAR 16:9, 23.98 fps, 23.98 tbr, 24k tbn, 48k tbc (default)
    Metadata:
      creation_time   : 2024-07-01T19:20:27.000000Z
      handler_name    : ?Apple Video Media Handler
      vendor_id       : BMAG
      encoder         : H264/AVC
  Stream #0:1(eng): Audio: pcm_s24le (in24 / 0x34326E69), 48000 Hz, 2 channels, s32 (24 bit), 2304 kb/s (default)
    Metadata:
      creation_time   : 2024-07-01T19:20:27.000000Z
      handler_name    : ?Apple Sound Media Handler
      vendor_id       : [0][0][0][0]

H.264/5 Medium

UltraHD

60 FPS
Input #0, mov,mp4,m4a,3gp,3g2,mj2, from 'HyperDeck_0005.mp4':
  Metadata:
    major_brand     : isom
    minor_version   : 1
    compatible_brands: iso4avc1isom
    creation_time   : 2024-06-30T20:02:02.000000Z
    com.apple.proapps.reel: 1
    com.apple.proapps.scene: 1
    com.apple.proapps.shot: 27
    com.blackmagic-design.camera.environment: interior
    com.blackmagic-design.camera.dayNight: day
    com.apple.proapps.cameraName: 1
    com.blackmagic-design.camera.dateRecorded: 20240630
  Duration: 00:02:09.35, start: 0.000000, bitrate: 17316 kb/s
  Stream #0:0(eng): Video: hevc (Main 10) (hvc1 / 0x31637668), yuv420p10le(tv, progressive), 3840x2160, 15002 kb/s, SAR 1:1 DAR 16:9, 60 fps, 60 tbr, 60 tbn, 60 tbc (default)
    Metadata:
      creation_time   : 2024-06-30T20:02:02.000000Z
      handler_name    : ?Apple Video Media Handler
      vendor_id       : BMAG
      encoder         : H265/HVC
  Stream #0:1(eng): Audio: pcm_s24le (in24 / 0x34326E69), 48000 Hz, 2 channels, s32 (24 bit), 2304 kb/s (default)
    Metadata:
      creation_time   : 2024-06-30T20:02:02.000000Z
      handler_name    : ?Apple Sound Media Handler
      vendor_id       : [0][0][0][0]
59.94 FPS
Input #0, mov,mp4,m4a,3gp,3g2,mj2, from 'HyperDeck_0003.mp4':
  Metadata:
    major_brand     : isom
    minor_version   : 1
    compatible_brands: iso4avc1isom
    creation_time   : 2024-06-30T20:16:11.000000Z
    com.apple.proapps.reel: 1
    com.apple.proapps.scene: 1
    com.apple.proapps.shot: 31
    com.blackmagic-design.camera.environment: interior
    com.blackmagic-design.camera.dayNight: day
    com.apple.proapps.cameraName: 1
    com.blackmagic-design.camera.dateRecorded: 20240630
  Duration: 00:02:08.29, start: 0.000000, bitrate: 19020 kb/s
  Stream #0:0(eng): Video: hevc (Main 10) (hvc1 / 0x31637668), yuv420p10le(tv, progressive), 3840x2160, 16706 kb/s, SAR 1:1 DAR 16:9, 59.94 fps, 59.94 tbr, 60k tbn, 59.94 tbc (default)
    Metadata:
      creation_time   : 2024-06-30T20:16:11.000000Z
      handler_name    : ?Apple Video Media Handler
      vendor_id       : BMAG
      encoder         : H265/HVC
  Stream #0:1(eng): Audio: pcm_s24le (in24 / 0x34326E69), 48000 Hz, 2 channels, s32 (24 bit), 2304 kb/s (default)
    Metadata:
      creation_time   : 2024-06-30T20:16:11.000000Z
      handler_name    : ?Apple Sound Media Handler
      vendor_id       : [0][0][0][0]
50 FPS
Input #0, mov,mp4,m4a,3gp,3g2,mj2, from 'HyperDeck_0003.mp4':
  Metadata:
    major_brand     : isom
    minor_version   : 1
    compatible_brands: iso4avc1isom
    creation_time   : 2024-06-30T20:28:15.000000Z
    com.apple.proapps.reel: 1
    com.apple.proapps.scene: 1
    com.apple.proapps.shot: 35
    com.blackmagic-design.camera.environment: interior
    com.blackmagic-design.camera.dayNight: day
    com.apple.proapps.cameraName: 1
    com.blackmagic-design.camera.dateRecorded: 20240630
  Duration: 00:02:08.38, start: 0.000000, bitrate: 17091 kb/s
  Stream #0:0(eng): Video: hevc (Main 10) (hvc1 / 0x31637668), yuv420p10le(tv, progressive), 3840x2160, 14778 kb/s, SAR 1:1 DAR 16:9, 50 fps, 50 tbr, 50 tbn, 50 tbc (default)
    Metadata:
      creation_time   : 2024-06-30T20:28:15.000000Z
      handler_name    : ?Apple Video Media Handler
      vendor_id       : BMAG
      encoder         : H265/HVC
  Stream #0:1(eng): Audio: pcm_s24le (in24 / 0x34326E69), 48000 Hz, 2 channels, s32 (24 bit), 2304 kb/s (default)
    Metadata:
      creation_time   : 2024-06-30T20:28:15.000000Z
      handler_name    : ?Apple Sound Media Handler
      vendor_id       : [0][0][0][0]
30 FPS
Input #0, mov,mp4,m4a,3gp,3g2,mj2, from 'HyperDeck_0003.mp4':
  Metadata:
    major_brand     : isom
    minor_version   : 1
    compatible_brands: iso4avc1isom
    creation_time   : 2024-06-30T20:39:56.000000Z
    com.apple.proapps.reel: 1
    com.apple.proapps.scene: 1
    com.apple.proapps.shot: 39
    com.blackmagic-design.camera.environment: interior
    com.blackmagic-design.camera.dayNight: day
    com.apple.proapps.cameraName: 1
    com.blackmagic-design.camera.dateRecorded: 20240630
  Duration: 00:02:07.40, start: 0.000000, bitrate: 16777 kb/s
  Stream #0:0(eng): Video: hevc (Main 10) (hvc1 / 0x31637668), yuv420p10le(tv, progressive), 3840x2160, 14466 kb/s, SAR 1:1 DAR 16:9, 30 fps, 30 tbr, 30 tbn, 30 tbc (default)
    Metadata:
      creation_time   : 2024-06-30T20:39:56.000000Z
      handler_name    : ?Apple Video Media Handler
      vendor_id       : BMAG
      encoder         : H265/HVC
  Stream #0:1(eng): Audio: pcm_s24le (in24 / 0x34326E69), 48000 Hz, 2 channels, s32 (24 bit), 2304 kb/s (default)
    Metadata:
      creation_time   : 2024-06-30T20:39:56.000000Z
      handler_name    : ?Apple Sound Media Handler
      vendor_id       : [0][0][0][0]
29.97 FPS
Input #0, mov,mp4,m4a,3gp,3g2,mj2, from 'HyperDeck_0003.mp4':
  Metadata:
    major_brand     : isom
    minor_version   : 1
    compatible_brands: iso4avc1isom
    creation_time   : 2024-06-30T21:02:07.000000Z
    com.apple.proapps.reel: 1
    com.apple.proapps.scene: 1
    com.apple.proapps.shot: 47
    com.blackmagic-design.camera.environment: interior
    com.blackmagic-design.camera.dayNight: day
    com.apple.proapps.cameraName: 1
    com.blackmagic-design.camera.dateRecorded: 20240630
  Duration: 00:02:10.96, start: 0.000000, bitrate: 19199 kb/s
  Stream #0:0(eng): Video: hevc (Main 10) (hvc1 / 0x31637668), yuv420p10le(tv, progressive), 3840x2160, 16887 kb/s, SAR 1:1 DAR 16:9, 29.97 fps, 29.97 tbr, 30k tbn, 29.97 tbc (default)
    Metadata:
      creation_time   : 2024-06-30T21:02:07.000000Z
      handler_name    : ?Apple Video Media Handler
      vendor_id       : BMAG
      encoder         : H265/HVC
  Stream #0:1(eng): Audio: pcm_s24le (in24 / 0x34326E69), 48000 Hz, 2 channels, s32 (24 bit), 2304 kb/s (default)
    Metadata:
      creation_time   : 2024-06-30T21:02:07.000000Z
      handler_name    : ?Apple Sound Media Handler
      vendor_id       : [0][0][0][0]
25 FPS
Input #0, mov,mp4,m4a,3gp,3g2,mj2, from 'HyperDeck_0003.mp4':
  Metadata:
    major_brand     : isom
    minor_version   : 1
    compatible_brands: iso4avc1isom
    creation_time   : 2024-06-30T21:13:43.000000Z
    com.apple.proapps.reel: 1
    com.apple.proapps.scene: 1
    com.apple.proapps.shot: 51
    com.blackmagic-design.camera.environment: interior
    com.blackmagic-design.camera.dayNight: day
    com.apple.proapps.cameraName: 1
    com.blackmagic-design.camera.dateRecorded: 20240630
  Duration: 00:02:10.20, start: 0.000000, bitrate: 18327 kb/s
  Stream #0:0(eng): Video: hevc (Main 10) (hvc1 / 0x31637668), yuv420p10le(tv, progressive), 3840x2160, 16016 kb/s, SAR 1:1 DAR 16:9, 25 fps, 25 tbr, 25 tbn, 25 tbc (default)
    Metadata:
      creation_time   : 2024-06-30T21:13:43.000000Z
      handler_name    : ?Apple Video Media Handler
      vendor_id       : BMAG
      encoder         : H265/HVC
  Stream #0:1(eng): Audio: pcm_s24le (in24 / 0x34326E69), 48000 Hz, 2 channels, s32 (24 bit), 2304 kb/s (default)
    Metadata:
      creation_time   : 2024-06-30T21:13:43.000000Z
      handler_name    : ?Apple Sound Media Handler
      vendor_id       : [0][0][0][0]
24 FPS
Input #0, mov,mp4,m4a,3gp,3g2,mj2, from 'HyperDeck_0006.mp4':
  Metadata:
    major_brand     : isom
    minor_version   : 1
    compatible_brands: iso4avc1isom
    creation_time   : 2024-06-30T21:22:05.000000Z
    com.apple.proapps.reel: 1
    com.apple.proapps.scene: 1
    com.apple.proapps.shot: 54
    com.blackmagic-design.camera.environment: interior
    com.blackmagic-design.camera.dayNight: day
    com.apple.proapps.cameraName: 1
    com.blackmagic-design.camera.dateRecorded: 20240630
  Duration: 00:02:09.63, start: 0.000000, bitrate: 18447 kb/s
  Stream #0:0(eng): Video: hevc (Main 10) (hvc1 / 0x31637668), yuv420p10le(tv, progressive), 3840x2160, 16137 kb/s, SAR 1:1 DAR 16:9, 24 fps, 24 tbr, 24 tbn, 24 tbc (default)
    Metadata:
      creation_time   : 2024-06-30T21:22:05.000000Z
      handler_name    : ?Apple Video Media Handler
      vendor_id       : BMAG
      encoder         : H265/HVC
  Stream #0:1(eng): Audio: pcm_s24le (in24 / 0x34326E69), 48000 Hz, 2 channels, s32 (24 bit), 2304 kb/s (default)
    Metadata:
      creation_time   : 2024-06-30T21:22:05.000000Z
      handler_name    : ?Apple Sound Media Handler
      vendor_id       : [0][0][0][0]
23.98 FPS
Input #0, mov,mp4,m4a,3gp,3g2,mj2, from 'HyperDeck_0011.mp4':
  Metadata:
    major_brand     : isom
    minor_version   : 1
    compatible_brands: iso4avc1isom
    creation_time   : 2024-06-30T21:36:55.000000Z
    com.apple.proapps.reel: 1
    com.apple.proapps.scene: 1
    com.apple.proapps.shot: 59
    com.blackmagic-design.camera.environment: interior
    com.blackmagic-design.camera.dayNight: day
    com.apple.proapps.cameraName: 1
    com.blackmagic-design.camera.dateRecorded: 20240630
  Duration: 00:02:08.00, start: 0.000000, bitrate: 18438 kb/s
  Stream #0:0(eng): Video: hevc (Main 10) (hvc1 / 0x31637668), yuv420p10le(tv, progressive), 3840x2160, 16127 kb/s, SAR 1:1 DAR 16:9, 23.98 fps, 23.98 tbr, 24k tbn, 23.98 tbc (default)
    Metadata:
      creation_time   : 2024-06-30T21:36:55.000000Z
      handler_name    : ?Apple Video Media Handler
      vendor_id       : BMAG
      encoder         : H265/HVC
  Stream #0:1(eng): Audio: pcm_s24le (in24 / 0x34326E69), 48000 Hz, 2 channels, s32 (24 bit), 2304 kb/s (default)
    Metadata:
      creation_time   : 2024-06-30T21:36:55.000000Z
      handler_name    : ?Apple Sound Media Handler
      vendor_id       : [0][0][0][0]

FullHD

60 FPS
Input #0, mov,mp4,m4a,3gp,3g2,mj2, from 'HyperDeck_0003.mp4':
  Metadata:
    major_brand     : isom
    minor_version   : 1
    compatible_brands: iso4avc1isom
    creation_time   : 2024-07-01T17:34:36.000000Z
    com.apple.proapps.reel: 1
    com.apple.proapps.scene: 1
    com.apple.proapps.shot: 65
    com.blackmagic-design.camera.environment: interior
    com.blackmagic-design.camera.dayNight: day
    com.apple.proapps.cameraName: 1
    com.blackmagic-design.camera.dateRecorded: 20240701
  Duration: 00:03:36.98, start: 0.000000, bitrate: 21953 kb/s
  Stream #0:0(eng): Video: h264 (Main) (avc1 / 0x31637661), yuv420p(tv, bt709, progressive), 1920x1080, 19639 kb/s, SAR 1:1 DAR 16:9, 60 fps, 60 tbr, 60 tbn, 120 tbc (default)
    Metadata:
      creation_time   : 2024-07-01T17:34:36.000000Z
      handler_name    : ?Apple Video Media Handler
      vendor_id       : BMAG
      encoder         : H264/AVC
  Stream #0:1(eng): Audio: pcm_s24le (in24 / 0x34326E69), 48000 Hz, 2 channels, s32 (24 bit), 2304 kb/s (default)
    Metadata:
      creation_time   : 2024-07-01T17:34:36.000000Z
      handler_name    : ?Apple Sound Media Handler
      vendor_id       : [0][0][0][0]
59.94 FPS
Input #0, mov,mp4,m4a,3gp,3g2,mj2, from 'HyperDeck_0007.mp4':
  Metadata:
    major_brand     : isom
    minor_version   : 1
    compatible_brands: iso4avc1isom
    creation_time   : 2024-07-01T17:51:29.000000Z
    com.apple.proapps.reel: 1
    com.apple.proapps.scene: 1
    com.apple.proapps.shot: 69
    com.blackmagic-design.camera.environment: interior
    com.blackmagic-design.camera.dayNight: day
    com.apple.proapps.cameraName: 1
    com.blackmagic-design.camera.dateRecorded: 20240701
  Duration: 00:03:40.72, start: 0.000000, bitrate: 21692 kb/s
  Stream #0:0(eng): Video: h264 (Main) (avc1 / 0x31637661), yuv420p(tv, bt709, progressive), 1920x1080, 19378 kb/s, SAR 1:1 DAR 16:9, 59.94 fps, 59.94 tbr, 60k tbn, 120k tbc (default)
    Metadata:
      creation_time   : 2024-07-01T17:51:29.000000Z
      handler_name    : ?Apple Video Media Handler
      vendor_id       : BMAG
      encoder         : H264/AVC
  Stream #0:1(eng): Audio: pcm_s24le (in24 / 0x34326E69), 48000 Hz, 2 channels, s32 (24 bit), 2304 kb/s (default)
    Metadata:
      creation_time   : 2024-07-01T17:51:29.000000Z
      handler_name    : ?Apple Sound Media Handler
      vendor_id       : [0][0][0][0]
50 FPS
Input #0, mov,mp4,m4a,3gp,3g2,mj2, from 'HyperDeck_0011.mp4':
  Metadata:
    major_brand     : isom
    minor_version   : 1
    compatible_brands: iso4avc1isom
    creation_time   : 2024-07-01T18:06:56.000000Z
    com.apple.proapps.reel: 1
    com.apple.proapps.scene: 1
    com.apple.proapps.shot: 73
    com.blackmagic-design.camera.environment: interior
    com.blackmagic-design.camera.dayNight: day
    com.apple.proapps.cameraName: 1
    com.blackmagic-design.camera.dateRecorded: 20240701
  Duration: 00:03:26.06, start: 0.000000, bitrate: 19791 kb/s
  Stream #0:0(eng): Video: h264 (Main) (avc1 / 0x31637661), yuv420p(tv, bt709, progressive), 1920x1080, 17478 kb/s, SAR 1:1 DAR 16:9, 50 fps, 50 tbr, 50 tbn, 100 tbc (default)
    Metadata:
      creation_time   : 2024-07-01T18:06:56.000000Z
      handler_name    : ?Apple Video Media Handler
      vendor_id       : BMAG
      encoder         : H264/AVC
  Stream #0:1(eng): Audio: pcm_s24le (in24 / 0x34326E69), 48000 Hz, 2 channels, s32 (24 bit), 2304 kb/s (default)
    Metadata:
      creation_time   : 2024-07-01T18:06:56.000000Z
      handler_name    : ?Apple Sound Media Handler
      vendor_id       : [0][0][0][0]
30 FPS
Input #0, mov,mp4,m4a,3gp,3g2,mj2, from 'HyperDeck_0015.mp4':
  Metadata:
    major_brand     : isom
    minor_version   : 1
    compatible_brands: iso4avc1isom
    creation_time   : 2024-07-01T18:22:47.000000Z
    com.apple.proapps.reel: 1
    com.apple.proapps.scene: 1
    com.apple.proapps.shot: 77
    com.blackmagic-design.camera.environment: interior
    com.blackmagic-design.camera.dayNight: day
    com.apple.proapps.cameraName: 1
    com.blackmagic-design.camera.dateRecorded: 20240701
  Duration: 00:03:39.90, start: 0.000000, bitrate: 15160 kb/s
  Stream #0:0(eng): Video: h264 (Main) (avc1 / 0x31637661), yuv420p(tv, bt709, progressive), 1920x1080, 12850 kb/s, SAR 1:1 DAR 16:9, 30 fps, 30 tbr, 30 tbn, 60 tbc (default)
    Metadata:
      creation_time   : 2024-07-01T18:22:47.000000Z
      handler_name    : ?Apple Video Media Handler
      vendor_id       : BMAG
      encoder         : H264/AVC
  Stream #0:1(eng): Audio: pcm_s24le (in24 / 0x34326E69), 48000 Hz, 2 channels, s32 (24 bit), 2304 kb/s (default)
    Metadata:
      creation_time   : 2024-07-01T18:22:47.000000Z
      handler_name    : ?Apple Sound Media Handler
      vendor_id       : [0][0][0][0]
29.97 FPS
Input #0, mov,mp4,m4a,3gp,3g2,mj2, from 'HyperDeck_0019.mp4':
  Metadata:
    major_brand     : isom
    minor_version   : 1
    compatible_brands: iso4avc1isom
    creation_time   : 2024-07-01T18:38:09.000000Z
    com.apple.proapps.reel: 1
    com.apple.proapps.scene: 1
    com.apple.proapps.shot: 81
    com.blackmagic-design.camera.environment: interior
    com.blackmagic-design.camera.dayNight: day
    com.apple.proapps.cameraName: 1
    com.blackmagic-design.camera.dateRecorded: 20240701
  Duration: 00:03:34.38, start: 0.000000, bitrate: 15160 kb/s
  Stream #0:0(eng): Video: h264 (Main) (avc1 / 0x31637661), yuv420p(tv, bt709, progressive), 1920x1080, 12849 kb/s, SAR 1:1 DAR 16:9, 29.97 fps, 29.97 tbr, 30k tbn, 60k tbc (default)
    Metadata:
      creation_time   : 2024-07-01T18:38:09.000000Z
      handler_name    : ?Apple Video Media Handler
      vendor_id       : BMAG
      encoder         : H264/AVC
  Stream #0:1(eng): Audio: pcm_s24le (in24 / 0x34326E69), 48000 Hz, 2 channels, s32 (24 bit), 2304 kb/s (default)
    Metadata:
      creation_time   : 2024-07-01T18:38:09.000000Z
      handler_name    : ?Apple Sound Media Handler
      vendor_id       : [0][0][0][0]
25 FPS
Input #0, mov,mp4,m4a,3gp,3g2,mj2, from 'HyperDeck_0023.mp4':
  Metadata:
    major_brand     : isom
    minor_version   : 1
    compatible_brands: iso4avc1isom
    creation_time   : 2024-07-01T18:53:21.000000Z
    com.apple.proapps.reel: 1
    com.apple.proapps.scene: 1
    com.apple.proapps.shot: 85
    com.blackmagic-design.camera.environment: interior
    com.blackmagic-design.camera.dayNight: day
    com.apple.proapps.cameraName: 1
    com.blackmagic-design.camera.dateRecorded: 20240701
  Duration: 00:03:34.56, start: 0.000000, bitrate: 13640 kb/s
  Stream #0:0(eng): Video: h264 (Main) (avc1 / 0x31637661), yuv420p(tv, bt709, progressive), 1920x1080, 11330 kb/s, SAR 1:1 DAR 16:9, 25 fps, 25 tbr, 25 tbn, 50 tbc (default)
    Metadata:
      creation_time   : 2024-07-01T18:53:21.000000Z
      handler_name    : ?Apple Video Media Handler
      vendor_id       : BMAG
      encoder         : H264/AVC
  Stream #0:1(eng): Audio: pcm_s24le (in24 / 0x34326E69), 48000 Hz, 2 channels, s32 (24 bit), 2304 kb/s (default)
    Metadata:
      creation_time   : 2024-07-01T18:53:21.000000Z
      handler_name    : ?Apple Sound Media Handler
      vendor_id       : [0][0][0][0]
24 FPS
Input #0, mov,mp4,m4a,3gp,3g2,mj2, from 'HyperDeck_0027.mp4':
  Metadata:
    major_brand     : isom
    minor_version   : 1
    compatible_brands: iso4avc1isom
    creation_time   : 2024-07-01T19:08:52.000000Z
    com.apple.proapps.reel: 1
    com.apple.proapps.scene: 1
    com.apple.proapps.shot: 89
    com.blackmagic-design.camera.environment: interior
    com.blackmagic-design.camera.dayNight: day
    com.apple.proapps.cameraName: 1
    com.blackmagic-design.camera.dateRecorded: 20240701
  Duration: 00:03:39.42, start: 0.000000, bitrate: 12896 kb/s
  Stream #0:0(eng): Video: h264 (Main) (avc1 / 0x31637661), yuv420p(tv, bt709, progressive), 1920x1080, 10587 kb/s, SAR 1:1 DAR 16:9, 24 fps, 24 tbr, 24 tbn, 48 tbc (default)
    Metadata:
      creation_time   : 2024-07-01T19:08:52.000000Z
      handler_name    : ?Apple Video Media Handler
      vendor_id       : BMAG
      encoder         : H264/AVC
  Stream #0:1(eng): Audio: pcm_s24le (in24 / 0x34326E69), 48000 Hz, 2 channels, s32 (24 bit), 2304 kb/s (default)
    Metadata:
      creation_time   : 2024-07-01T19:08:52.000000Z
      handler_name    : ?Apple Sound Media Handler
      vendor_id       : [0][0][0][0]
23.98 FPS
Input #0, mov,mp4,m4a,3gp,3g2,mj2, from 'HyperDeck_0031.mp4':
  Metadata:
    major_brand     : isom
    minor_version   : 1
    compatible_brands: iso4avc1isom
    creation_time   : 2024-07-01T19:24:23.000000Z
    com.apple.proapps.reel: 1
    com.apple.proapps.scene: 1
    com.apple.proapps.shot: 93
    com.blackmagic-design.camera.environment: interior
    com.blackmagic-design.camera.dayNight: day
    com.apple.proapps.cameraName: 1
    com.blackmagic-design.camera.dateRecorded: 20240701
  Duration: 00:03:40.22, start: 0.000000, bitrate: 13155 kb/s
  Stream #0:0(eng): Video: h264 (Main) (avc1 / 0x31637661), yuv420p(tv, bt709, progressive), 1920x1080, 10845 kb/s, SAR 1:1 DAR 16:9, 23.98 fps, 23.98 tbr, 24k tbn, 48k tbc (default)
    Metadata:
      creation_time   : 2024-07-01T19:24:23.000000Z
      handler_name    : ?Apple Video Media Handler
      vendor_id       : BMAG
      encoder         : H264/AVC
  Stream #0:1(eng): Audio: pcm_s24le (in24 / 0x34326E69), 48000 Hz, 2 channels, s32 (24 bit), 2304 kb/s (default)
    Metadata:
      creation_time   : 2024-07-01T19:24:23.000000Z
      handler_name    : ?Apple Sound Media Handler
      vendor_id       : [0][0][0][0]

H.264/5 Low

UltraHD

60 FPS
Input #0, mov,mp4,m4a,3gp,3g2,mj2, from 'HyperDeck_0006.mp4':
  Metadata:
    major_brand     : isom
    minor_version   : 1
    compatible_brands: iso4avc1isom
    creation_time   : 2024-06-30T20:04:31.000000Z
    com.apple.proapps.reel: 1
    com.apple.proapps.scene: 1
    com.apple.proapps.shot: 28
    com.blackmagic-design.camera.environment: interior
    com.blackmagic-design.camera.dayNight: day
    com.apple.proapps.cameraName: 1
    com.blackmagic-design.camera.dateRecorded: 20240630
  Duration: 00:02:07.62, start: 0.000000, bitrate: 16334 kb/s
  Stream #0:0(eng): Video: hevc (Main 10) (hvc1 / 0x31637668), yuv420p10le(tv, progressive), 3840x2160, 14020 kb/s, SAR 1:1 DAR 16:9, 60 fps, 60 tbr, 60 tbn, 60 tbc (default)
    Metadata:
      creation_time   : 2024-06-30T20:04:31.000000Z
      handler_name    : ?Apple Video Media Handler
      vendor_id       : BMAG
      encoder         : H265/HVC
  Stream #0:1(eng): Audio: pcm_s24le (in24 / 0x34326E69), 48000 Hz, 2 channels, s32 (24 bit), 2304 kb/s (default)
    Metadata:
      creation_time   : 2024-06-30T20:04:31.000000Z
      handler_name    : ?Apple Sound Media Handler
      vendor_id       : [0][0][0][0]
59.94 FPS
Input #0, mov,mp4,m4a,3gp,3g2,mj2, from 'HyperDeck_0004.mp4':
  Metadata:
    major_brand     : isom
    minor_version   : 1
    compatible_brands: iso4avc1isom
    creation_time   : 2024-06-30T20:18:36.000000Z
    com.apple.proapps.reel: 1
    com.apple.proapps.scene: 1
    com.apple.proapps.shot: 32
    com.blackmagic-design.camera.environment: interior
    com.blackmagic-design.camera.dayNight: day
    com.apple.proapps.cameraName: 1
    com.blackmagic-design.camera.dateRecorded: 20240630
  Duration: 00:02:08.13, start: 0.000000, bitrate: 17317 kb/s
  Stream #0:0(eng): Video: hevc (Main 10) (hvc1 / 0x31637668), yuv420p10le(tv, progressive), 3840x2160, 15003 kb/s, SAR 1:1 DAR 16:9, 59.94 fps, 59.94 tbr, 60k tbn, 59.94 tbc (default)
    Metadata:
      creation_time   : 2024-06-30T20:18:36.000000Z
      handler_name    : ?Apple Video Media Handler
      vendor_id       : BMAG
      encoder         : H265/HVC
  Stream #0:1(eng): Audio: pcm_s24le (in24 / 0x34326E69), 48000 Hz, 2 channels, s32 (24 bit), 2304 kb/s (default)
    Metadata:
      creation_time   : 2024-06-30T20:18:36.000000Z
      handler_name    : ?Apple Sound Media Handler
      vendor_id       : [0][0][0][0]
50 FPS
Input #0, mov,mp4,m4a,3gp,3g2,mj2, from 'HyperDeck_0004.mp4':
  Metadata:
    major_brand     : isom
    minor_version   : 1
    compatible_brands: iso4avc1isom
    creation_time   : 2024-06-30T20:30:44.000000Z
    com.apple.proapps.reel: 1
    com.apple.proapps.scene: 1
    com.apple.proapps.shot: 36
    com.blackmagic-design.camera.environment: interior
    com.blackmagic-design.camera.dayNight: day
    com.apple.proapps.cameraName: 1
    com.blackmagic-design.camera.dateRecorded: 20240630
  Duration: 00:02:08.50, start: 0.000000, bitrate: 15299 kb/s
  Stream #0:0(eng): Video: hevc (Main 10) (hvc1 / 0x31637668), yuv420p10le(tv, progressive), 3840x2160, 12986 kb/s, SAR 1:1 DAR 16:9, 50 fps, 50 tbr, 50 tbn, 50 tbc (default)
    Metadata:
      creation_time   : 2024-06-30T20:30:44.000000Z
      handler_name    : ?Apple Video Media Handler
      vendor_id       : BMAG
      encoder         : H265/HVC
  Stream #0:1(eng): Audio: pcm_s24le (in24 / 0x34326E69), 48000 Hz, 2 channels, s32 (24 bit), 2304 kb/s (default)
    Metadata:
      creation_time   : 2024-06-30T20:30:44.000000Z
      handler_name    : ?Apple Sound Media Handler
      vendor_id       : [0][0][0][0]
30 FPS
Input #0, mov,mp4,m4a,3gp,3g2,mj2, from 'HyperDeck_0004.mp4':
  Metadata:
    major_brand     : isom
    minor_version   : 1
    compatible_brands: iso4avc1isom
    creation_time   : 2024-06-30T20:42:17.000000Z
    com.apple.proapps.reel: 1
    com.apple.proapps.scene: 1
    com.apple.proapps.shot: 40
    com.blackmagic-design.camera.environment: interior
    com.blackmagic-design.camera.dayNight: day
    com.apple.proapps.cameraName: 1
    com.blackmagic-design.camera.dateRecorded: 20240630
  Duration: 00:02:09.47, start: 0.000000, bitrate: 14086 kb/s
  Stream #0:0(eng): Video: hevc (Main 10) (hvc1 / 0x31637668), yuv420p10le(tv, progressive), 3840x2160, 11775 kb/s, SAR 1:1 DAR 16:9, 30 fps, 30 tbr, 30 tbn, 30 tbc (default)
    Metadata:
      creation_time   : 2024-06-30T20:42:17.000000Z
      handler_name    : ?Apple Video Media Handler
      vendor_id       : BMAG
      encoder         : H265/HVC
  Stream #0:1(eng): Audio: pcm_s24le (in24 / 0x34326E69), 48000 Hz, 2 channels, s32 (24 bit), 2304 kb/s (default)
    Metadata:
      creation_time   : 2024-06-30T20:42:17.000000Z
      handler_name    : ?Apple Sound Media Handler
      vendor_id       : [0][0][0][0]
29.97 FPS
Input #0, mov,mp4,m4a,3gp,3g2,mj2, from 'HyperDeck_0004.mp4':
  Metadata:
    major_brand     : isom
    minor_version   : 1
    compatible_brands: iso4avc1isom
    creation_time   : 2024-06-30T21:04:30.000000Z
    com.apple.proapps.reel: 1
    com.apple.proapps.scene: 1
    com.apple.proapps.shot: 48
    com.blackmagic-design.camera.environment: interior
    com.blackmagic-design.camera.dayNight: day
    com.apple.proapps.cameraName: 1
    com.blackmagic-design.camera.dateRecorded: 20240630
  Duration: 00:02:09.30, start: 0.000000, bitrate: 15122 kb/s
  Stream #0:0(eng): Video: hevc (Main 10) (hvc1 / 0x31637668), yuv420p10le(tv, progressive), 3840x2160, 12810 kb/s, SAR 1:1 DAR 16:9, 29.97 fps, 29.97 tbr, 30k tbn, 29.97 tbc (default)
    Metadata:
      creation_time   : 2024-06-30T21:04:30.000000Z
      handler_name    : ?Apple Video Media Handler
      vendor_id       : BMAG
      encoder         : H265/HVC
  Stream #0:1(eng): Audio: pcm_s24le (in24 / 0x34326E69), 48000 Hz, 2 channels, s32 (24 bit), 2304 kb/s (default)
    Metadata:
      creation_time   : 2024-06-30T21:04:30.000000Z
      handler_name    : ?Apple Sound Media Handler
      vendor_id       : [0][0][0][0]
25 FPS
Input #0, mov,mp4,m4a,3gp,3g2,mj2, from 'HyperDeck_0004.mp4':
  Metadata:
    major_brand     : isom
    minor_version   : 1
    compatible_brands: iso4avc1isom
    creation_time   : 2024-06-30T21:16:06.000000Z
    com.apple.proapps.reel: 1
    com.apple.proapps.scene: 1
    com.apple.proapps.shot: 52
    com.blackmagic-design.camera.environment: interior
    com.blackmagic-design.camera.dayNight: day
    com.apple.proapps.cameraName: 1
    com.blackmagic-design.camera.dateRecorded: 20240630
  Duration: 00:02:07.92, start: 0.000000, bitrate: 13885 kb/s
  Stream #0:0(eng): Video: hevc (Main 10) (hvc1 / 0x31637668), yuv420p10le(tv, progressive), 3840x2160, 11575 kb/s, SAR 1:1 DAR 16:9, 25 fps, 25 tbr, 25 tbn, 25 tbc (default)
    Metadata:
      creation_time   : 2024-06-30T21:16:06.000000Z
      handler_name    : ?Apple Video Media Handler
      vendor_id       : BMAG
      encoder         : H265/HVC
  Stream #0:1(eng): Audio: pcm_s24le (in24 / 0x34326E69), 48000 Hz, 2 channels, s32 (24 bit), 2304 kb/s (default)
    Metadata:
      creation_time   : 2024-06-30T21:16:06.000000Z
      handler_name    : ?Apple Sound Media Handler
      vendor_id       : [0][0][0][0]
24 FPS
Input #0, mov,mp4,m4a,3gp,3g2,mj2, from 'HyperDeck_0005.mp4':
  Metadata:
    major_brand     : isom
    minor_version   : 1
    compatible_brands: iso4avc1isom
    creation_time   : 2024-06-30T21:19:37.000000Z
    com.apple.proapps.reel: 1
    com.apple.proapps.scene: 1
    com.apple.proapps.shot: 53
    com.blackmagic-design.camera.environment: interior
    com.blackmagic-design.camera.dayNight: day
    com.apple.proapps.cameraName: 1
    com.blackmagic-design.camera.dateRecorded: 20240630
  Duration: 00:02:07.58, start: 0.000000, bitrate: 13755 kb/s
  Stream #0:0(eng): Video: hevc (Main 10) (hvc1 / 0x31637668), yuv420p10le(tv, progressive), 3840x2160, 11445 kb/s, SAR 1:1 DAR 16:9, 24 fps, 24 tbr, 24 tbn, 24 tbc (default)
    Metadata:
      creation_time   : 2024-06-30T21:19:37.000000Z
      handler_name    : ?Apple Video Media Handler
      vendor_id       : BMAG
      encoder         : H265/HVC
  Stream #0:1(eng): Audio: pcm_s24le (in24 / 0x34326E69), 48000 Hz, 2 channels, s32 (24 bit), 2304 kb/s (default)
    Metadata:
      creation_time   : 2024-06-30T21:19:37.000000Z
      handler_name    : ?Apple Sound Media Handler
      vendor_id       : [0][0][0][0]
23.98 FPS
Input #0, mov,mp4,m4a,3gp,3g2,mj2, from 'HyperDeck_0012.mp4':
  Metadata:
    major_brand     : isom
    minor_version   : 1
    compatible_brands: iso4avc1isom
    creation_time   : 2024-06-30T21:39:20.000000Z
    com.apple.proapps.reel: 1
    com.apple.proapps.scene: 1
    com.apple.proapps.shot: 60
    com.blackmagic-design.camera.environment: interior
    com.blackmagic-design.camera.dayNight: day
    com.apple.proapps.cameraName: 1
    com.blackmagic-design.camera.dateRecorded: 20240630
  Duration: 00:02:14.05, start: 0.000000, bitrate: 13884 kb/s
  Stream #0:0(eng): Video: hevc (Main 10) (hvc1 / 0x31637668), yuv420p10le(tv, progressive), 3840x2160, 11574 kb/s, SAR 1:1 DAR 16:9, 23.98 fps, 23.98 tbr, 24k tbn, 23.98 tbc (default)
    Metadata:
      creation_time   : 2024-06-30T21:39:20.000000Z
      handler_name    : ?Apple Video Media Handler
      vendor_id       : BMAG
      encoder         : H265/HVC
  Stream #0:1(eng): Audio: pcm_s24le (in24 / 0x34326E69), 48000 Hz, 2 channels, s32 (24 bit), 2304 kb/s (default)
    Metadata:
      creation_time   : 2024-06-30T21:39:20.000000Z
      handler_name    : ?Apple Sound Media Handler
      vendor_id       : [0][0][0][0]

FullHD

60 FPS
Input #0, mov,mp4,m4a,3gp,3g2,mj2, from 'HyperDeck_0004.mp4':
  Metadata:
    major_brand     : isom
    minor_version   : 1
    compatible_brands: iso4avc1isom
    creation_time   : 2024-07-01T17:38:23.000000Z
    com.apple.proapps.reel: 1
    com.apple.proapps.scene: 1
    com.apple.proapps.shot: 66
    com.blackmagic-design.camera.environment: interior
    com.blackmagic-design.camera.dayNight: day
    com.apple.proapps.cameraName: 1
    com.blackmagic-design.camera.dateRecorded: 20240701
  Duration: 00:03:43.83, start: 0.000000, bitrate: 15559 kb/s
  Stream #0:0(eng): Video: h264 (Main) (avc1 / 0x31637661), yuv420p(tv, bt709, progressive), 1920x1080, 13245 kb/s, SAR 1:1 DAR 16:9, 60 fps, 60 tbr, 60 tbn, 120 tbc (default)
    Metadata:
      creation_time   : 2024-07-01T17:38:23.000000Z
      handler_name    : ?Apple Video Media Handler
      vendor_id       : BMAG
      encoder         : H264/AVC
  Stream #0:1(eng): Audio: pcm_s24le (in24 / 0x34326E69), 48000 Hz, 2 channels, s32 (24 bit), 2304 kb/s (default)
    Metadata:
      creation_time   : 2024-07-01T17:38:23.000000Z
      handler_name    : ?Apple Sound Media Handler
      vendor_id       : [0][0][0][0]
59.94 FPS
Input #0, mov,mp4,m4a,3gp,3g2,mj2, from 'HyperDeck_0008.mp4':
  Metadata:
    major_brand     : isom
    minor_version   : 1
    compatible_brands: iso4avc1isom
    creation_time   : 2024-07-01T17:55:22.000000Z
    com.apple.proapps.reel: 1
    com.apple.proapps.scene: 1
    com.apple.proapps.shot: 70
    com.blackmagic-design.camera.environment: interior
    com.blackmagic-design.camera.dayNight: day
    com.apple.proapps.cameraName: 1
    com.blackmagic-design.camera.dateRecorded: 20240701
  Duration: 00:03:43.14, start: 0.000000, bitrate: 16033 kb/s
  Stream #0:0(eng): Video: h264 (Main) (avc1 / 0x31637661), yuv420p(tv, bt709, progressive), 1920x1080, 13719 kb/s, SAR 1:1 DAR 16:9, 59.94 fps, 59.94 tbr, 60k tbn, 120k tbc (default)
    Metadata:
      creation_time   : 2024-07-01T17:55:22.000000Z
      handler_name    : ?Apple Video Media Handler
      vendor_id       : BMAG
      encoder         : H264/AVC
  Stream #0:1(eng): Audio: pcm_s24le (in24 / 0x34326E69), 48000 Hz, 2 channels, s32 (24 bit), 2304 kb/s (default)
    Metadata:
      creation_time   : 2024-07-01T17:55:22.000000Z
      handler_name    : ?Apple Sound Media Handler
      vendor_id       : [0][0][0][0]
50 FPS
Input #0, mov,mp4,m4a,3gp,3g2,mj2, from 'HyperDeck_0012.mp4':
  Metadata:
    major_brand     : isom
    minor_version   : 1
    compatible_brands: iso4avc1isom
    creation_time   : 2024-07-01T18:10:37.000000Z
    com.apple.proapps.reel: 1
    com.apple.proapps.scene: 1
    com.apple.proapps.shot: 74
    com.blackmagic-design.camera.environment: interior
    com.blackmagic-design.camera.dayNight: day
    com.apple.proapps.cameraName: 1
    com.blackmagic-design.camera.dateRecorded: 20240701
  Duration: 00:03:44.96, start: 0.000000, bitrate: 14173 kb/s
  Stream #0:0(eng): Video: h264 (Main) (avc1 / 0x31637661), yuv420p(tv, bt709, progressive), 1920x1080, 11861 kb/s, SAR 1:1 DAR 16:9, 50 fps, 50 tbr, 50 tbn, 100 tbc (default)
    Metadata:
      creation_time   : 2024-07-01T18:10:37.000000Z
      handler_name    : ?Apple Video Media Handler
      vendor_id       : BMAG
      encoder         : H264/AVC
  Stream #0:1(eng): Audio: pcm_s24le (in24 / 0x34326E69), 48000 Hz, 2 channels, s32 (24 bit), 2304 kb/s (default)
    Metadata:
      creation_time   : 2024-07-01T18:10:37.000000Z
      handler_name    : ?Apple Sound Media Handler
      vendor_id       : [0][0][0][0]
30 FPS
Input #0, mov,mp4,m4a,3gp,3g2,mj2, from 'HyperDeck_0016.mp4':
  Metadata:
    major_brand     : isom
    minor_version   : 1
    compatible_brands: iso4avc1isom
    creation_time   : 2024-07-01T18:26:38.000000Z
    com.apple.proapps.reel: 1
    com.apple.proapps.scene: 1
    com.apple.proapps.shot: 78
    com.blackmagic-design.camera.environment: interior
    com.blackmagic-design.camera.dayNight: day
    com.apple.proapps.cameraName: 1
    com.blackmagic-design.camera.dateRecorded: 20240701
  Duration: 00:03:41.47, start: 0.000000, bitrate: 10839 kb/s
  Stream #0:0(eng): Video: h264 (Main) (avc1 / 0x31637661), yuv420p(tv, bt709, progressive), 1920x1080, 8529 kb/s, SAR 1:1 DAR 16:9, 30 fps, 30 tbr, 30 tbn, 60 tbc (default)
    Metadata:
      creation_time   : 2024-07-01T18:26:38.000000Z
      handler_name    : ?Apple Video Media Handler
      vendor_id       : BMAG
      encoder         : H264/AVC
  Stream #0:1(eng): Audio: pcm_s24le (in24 / 0x34326E69), 48000 Hz, 2 channels, s32 (24 bit), 2304 kb/s (default)
    Metadata:
      creation_time   : 2024-07-01T18:26:38.000000Z
      handler_name    : ?Apple Sound Media Handler
      vendor_id       : [0][0][0][0]
29.97 FPS
Input #0, mov,mp4,m4a,3gp,3g2,mj2, from 'HyperDeck_0020.mp4':
  Metadata:
    major_brand     : isom
    minor_version   : 1
    compatible_brands: iso4avc1isom
    creation_time   : 2024-07-01T18:41:55.000000Z
    com.apple.proapps.reel: 1
    com.apple.proapps.scene: 1
    com.apple.proapps.shot: 82
    com.blackmagic-design.camera.environment: interior
    com.blackmagic-design.camera.dayNight: day
    com.apple.proapps.cameraName: 1
    com.blackmagic-design.camera.dateRecorded: 20240701
  Duration: 00:03:31.38, start: 0.000000, bitrate: 10775 kb/s
  Stream #0:0(eng): Video: h264 (Main) (avc1 / 0x31637661), yuv420p(tv, bt709, progressive), 1920x1080, 8465 kb/s, SAR 1:1 DAR 16:9, 29.97 fps, 29.97 tbr, 30k tbn, 60k tbc (default)
    Metadata:
      creation_time   : 2024-07-01T18:41:55.000000Z
      handler_name    : ?Apple Video Media Handler
      vendor_id       : BMAG
      encoder         : H264/AVC
  Stream #0:1(eng): Audio: pcm_s24le (in24 / 0x34326E69), 48000 Hz, 2 channels, s32 (24 bit), 2304 kb/s (default)
    Metadata:
      creation_time   : 2024-07-01T18:41:55.000000Z
      handler_name    : ?Apple Sound Media Handler
      vendor_id       : [0][0][0][0]
25 FPS
Input #0, mov,mp4,m4a,3gp,3g2,mj2, from 'HyperDeck_0024.mp4':
  Metadata:
    major_brand     : isom
    minor_version   : 1
    compatible_brands: iso4avc1isom
    creation_time   : 2024-07-01T18:57:08.000000Z
    com.apple.proapps.reel: 1
    com.apple.proapps.scene: 1
    com.apple.proapps.shot: 86
    com.blackmagic-design.camera.environment: interior
    com.blackmagic-design.camera.dayNight: day
    com.apple.proapps.cameraName: 1
    com.blackmagic-design.camera.dateRecorded: 20240701
  Duration: 00:03:39.40, start: 0.000000, bitrate: 9440 kb/s
  Stream #0:0(eng): Video: h264 (Main) (avc1 / 0x31637661), yuv420p(tv, bt709, progressive), 1920x1080, 7130 kb/s, SAR 1:1 DAR 16:9, 25 fps, 25 tbr, 25 tbn, 50 tbc (default)
    Metadata:
      creation_time   : 2024-07-01T18:57:08.000000Z
      handler_name    : ?Apple Video Media Handler
      vendor_id       : BMAG
      encoder         : H264/AVC
  Stream #0:1(eng): Audio: pcm_s24le (in24 / 0x34326E69), 48000 Hz, 2 channels, s32 (24 bit), 2304 kb/s (default)
    Metadata:
      creation_time   : 2024-07-01T18:57:08.000000Z
      handler_name    : ?Apple Sound Media Handler
      vendor_id       : [0][0][0][0]
24 FPS
Input #0, mov,mp4,m4a,3gp,3g2,mj2, from 'HyperDeck_0028.mp4':
  Metadata:
    major_brand     : isom
    minor_version   : 1
    compatible_brands: iso4avc1isom
    creation_time   : 2024-07-01T19:12:40.000000Z
    com.apple.proapps.reel: 1
    com.apple.proapps.scene: 1
    com.apple.proapps.shot: 90
    com.blackmagic-design.camera.environment: interior
    com.blackmagic-design.camera.dayNight: day
    com.apple.proapps.cameraName: 1
    com.blackmagic-design.camera.dateRecorded: 20240701
  Duration: 00:03:41.54, start: 0.000000, bitrate: 8997 kb/s
  Stream #0:0(eng): Video: h264 (Main) (avc1 / 0x31637661), yuv420p(tv, bt709, progressive), 1920x1080, 6687 kb/s, SAR 1:1 DAR 16:9, 24 fps, 24 tbr, 24 tbn, 48 tbc (default)
    Metadata:
      creation_time   : 2024-07-01T19:12:40.000000Z
      handler_name    : ?Apple Video Media Handler
      vendor_id       : BMAG
      encoder         : H264/AVC
  Stream #0:1(eng): Audio: pcm_s24le (in24 / 0x34326E69), 48000 Hz, 2 channels, s32 (24 bit), 2304 kb/s (default)
    Metadata:
      creation_time   : 2024-07-01T19:12:40.000000Z
      handler_name    : ?Apple Sound Media Handler
      vendor_id       : [0][0][0][0]
23.98 FPS
Input #0, mov,mp4,m4a,3gp,3g2,mj2, from 'HyperDeck_0032.mp4':
  Metadata:
    major_brand     : isom
    minor_version   : 1
    compatible_brands: iso4avc1isom
    creation_time   : 2024-07-01T19:28:13.000000Z
    com.apple.proapps.reel: 1
    com.apple.proapps.scene: 1
    com.apple.proapps.shot: 94
    com.blackmagic-design.camera.environment: interior
    com.blackmagic-design.camera.dayNight: day
    com.apple.proapps.cameraName: 1
    com.blackmagic-design.camera.dateRecorded: 20240701
  Duration: 00:03:34.80, start: 0.000000, bitrate: 9036 kb/s
  Stream #0:0(eng): Video: h264 (Main) (avc1 / 0x31637661), yuv420p(tv, bt709, progressive), 1920x1080, 6726 kb/s, SAR 1:1 DAR 16:9, 23.98 fps, 23.98 tbr, 24k tbn, 48k tbc (default)
    Metadata:
      creation_time   : 2024-07-01T19:28:13.000000Z
      handler_name    : ?Apple Video Media Handler
      vendor_id       : BMAG
      encoder         : H264/AVC
  Stream #0:1(eng): Audio: pcm_s24le (in24 / 0x34326E69), 48000 Hz, 2 channels, s32 (24 bit), 2304 kb/s (default)
    Metadata:
      creation_time   : 2024-07-01T19:28:13.000000Z
      handler_name    : ?Apple Sound Media Handler
      vendor_id       : [0][0][0][0]

Dále je k dispozici kodek Apple ProRes který též lze použít pro všechny formáty od SD/HD/UHD a ještě kodek DNxHD pro rozlišení do FullHD a DNxHR pro rozlišení UltraHD. U nich nemá smysl dělal benchmark protože kodeky přesně kopírují specifikaci ProResu a DNxHD/DNxHR .

Štítky , , , , , , , , , , .Záložka pro permanentní odkaz.

Napsat komentář

Vaše e-mailová adresa nebude zveřejněna. Vyžadované informace jsou označeny *